<?xml version="1.0" standalone="no"?>
<!DOCTYPE svg PUBLIC "-//W3C//DTD SVG 1.1//EN" "http://www.w3.org/Graphics/SVG/1.1/DTD/svg11.dtd" >
<svg xmlns="http://www.w3.org/2000/svg" xmlns:xlink="http://www.w3.org/1999/xlink" version="1.1">
<metadata></metadata>
<defs>
<font id="stay_classy_duo_scriptregular" horiz-adv-x="1646" >
<font-face units-per-em="2048" ascent="936" descent="-1112" />
<missing-glyph horiz-adv-x="567" />
<glyph horiz-adv-x="0" />
<glyph horiz-adv-x="682" />
<glyph horiz-adv-x="0" />
<glyph horiz-adv-x="0" />
<glyph unicode="&#xd;" horiz-adv-x="567" />
<glyph unicode=" "  horiz-adv-x="567" />
<glyph unicode="&#x09;" horiz-adv-x="567" />
<glyph unicode="&#xa0;" horiz-adv-x="567" />
<glyph unicode="!" horiz-adv-x="481" d="M82 -311q-8 25 13 69.5t52 48.5q15 2 21 -7.5t4 -26t-5.5 -30t-8.5 -24.5q-11 -20 -38 -34.5t-38 4.5zM156 12q56 286 207.5 654t349.5 632q25 42 56 43q25 2 27 -26q2 -17 -8 -41q-373 -501 -604 -1260q-24 -19 -26 -15v3q0 6 -2 10z" />
<glyph unicode="&#x22;" horiz-adv-x="815" d="M403 1071q5 11 37 59t62 90.5t30 39.5t11.5 3.5t25.5 12.5t25 0q10 -8 -6 -45q-16 -27 -21 -33l-61 -72l-70 -86q-8 -8 -17 -5.5t-15 13.5t-1 23zM547 1057l8.5 17t14.5 28t17.5 33.5t18 34.5t16 29.5t13 21t6.5 6.5q2 -4 11.5 9.5t23.5 26t26 5.5q17 -13 15.5 -44 t-15.5 -50q-6 -8 -60 -86.5t-62 -86.5q-12 -12 -26.5 14.5t-6.5 41.5z" />
<glyph unicode="#" horiz-adv-x="1054" d="M90.5 295.5q1.5 14.5 13.5 19.5q102 15 297 58q53 85 164 241q11 8 23 -7.5t6 -28.5q-15 -20 -133 -193q151 29 248 41l82 121q10 10 20 2.5t4 -21.5q-48 -88 -55 -98q119 9 235 -6q32 -23 36 -28q13 -16 -11 -23q-6 3 -25 4.5t-52.5 3.5t-57.5 4q-53 5 -158 -8l-82 -125 h25q36 0 91.5 -25t55.5 -61q-2 -10 -5 -14t-7.5 -2t-8 4.5t-10.5 9.5q0 16 -43 30.5t-84 14.5q-29 0 -43 -2q-92 -140 -133 -221q-26 -20 -34 -15t0 35q29 61 110 197q-123 -13 -225 -45q-52 -105 -90 -242q-7 -4 -14.5 -5.5t-14.5 5t-6 25.5q26 104 72 202q-9 -2 -107 -32 q-11 -3 -17 3t-4 14t11 11q105 34 133 41q46 94 80 150q-49 -9 -141 -27.5t-134 -26.5q-13 5 -11.5 19.5zM352 195q149 43 236 53l80 119q-41 -8 -80 -11q-82 -6 -156 -18q-31 -47 -80 -143z" />
<glyph unicode="$" horiz-adv-x="784" d="M-69.5 201q-22.5 43 1.5 91t99 79q18 8 37 -8.5t12 -40.5q-11 -6 -42.5 -6.5t-37.5 -6.5q-28 -28 -31 -60t16.5 -59t61 -47t96.5 -26q3 0 10 -1t11 -1q42 85 126 241.5t99 184.5q0 1 1 3t1 3q-7 0 -33 1.5t-40.5 3t-41.5 4t-44.5 5.5t-40.5 8t-38 12.5t-29 16.5 t-21.5 21.5t-8.5 27.5q0 28 63 79.5t95 64.5q146 68 299 92q11 20 35.5 68.5t43.5 83.5t38 67q11 5 27 4t29.5 -8.5t10.5 -16.5l-112 -190q37 5 147 0q36 -6 48 -44q10 -31 -6 -42q-11 -8 -30 4q-81 26 -207 0l-122 -223q137 -18 209 -54q75 -37 88 -103t-50 -142 q-92 -106 -225.5 -160t-279.5 -49q-75 -167 -113 -295q-8 -17 -19 -24t-20 2.5t-10 33.5q55 173 112 285q-76 8 -134 43t-80.5 78zM180 646q8 -25 90 -38l144 -18l98 207h-8q-81 -14 -198 -61q-134 -54 -126 -90zM215 117q133 13 270.5 83t200.5 171q13 22 14 41.5t-9 35 t-26.5 28.5t-40 22.5t-48 17.5t-52 13t-50 8.5t-44.5 5.5l-8 -19q-142 -271 -207 -407z" />
<glyph unicode="%" horiz-adv-x="1107" d="M54.5 -127.5q-1.5 34.5 20 77t62.5 91.5q26 32 80.5 100t89 110t84 98.5t92.5 99.5q230 227 469 403l25.5 17t44.5 30t46 32t39 31.5t15 20.5q0 4 -4 6.5t-10 4t-13.5 2t-15.5 0.5h-14h-11l-5 -1q-223 0 -431 -43l-8 4l-63 7l4 -9q0 -34 -29 -71q-95 -85 -165 -69 q-43 11 -49 53q-9 51 44 95q49 40 133 52q33 8 63.5 3.5t67.5 -32.5q19 4 81.5 11.5t74.5 7.5q6 1 49.5 6t65.5 7.5t65.5 6t71 3.5t58.5 -2.5t51 -8.5q98 -33 -141 -212q-10 -7 -13 -9q-247 -194 -453 -400q-31 -27 -97.5 -99t-143 -164t-123.5 -178.5t-27 -123.5 q-2 -17 -6 -24.5t-11 -5.5t-13 6.5t-17 15.5q-32 16 -33.5 50.5zM364.5 885.5q-2.5 -5.5 0.5 -11.5q7 -26 31 -25.5t46 14t39 30.5q14 14 27 37q9 9 12 22q0 8 6 11q-101 4 -145 -56q-2 -3 -8 -9.5t-8.5 -12zM582 -10.5q0 28.5 6 53.5q17 42 56.5 74.5t86.5 42.5q-9 15 8 26 q49 0 72.5 -16.5t40.5 -63.5q10 -29 -6 -57q-30 -55 -83.5 -93t-113.5 -42q-31 0 -49 23.5t-18 52zM649 29q-22 -68 15 -66q36 1 91 56q63 61 60 103q-2 25 -33 32q3 -16 -14 -19q-75 0 -119 -106z" />
<glyph unicode="&#x26;" horiz-adv-x="720" d="M-4.5 33.5q0.5 52.5 12.5 91.5q21 68 63 126.5t107 127.5q0 95 49.5 184t122.5 113q26 7 49.5 7t37 -17t5.5 -48q-3 -12 -13 -26.5t-26.5 -32.5t-21.5 -24q-103 -107 -143 -154q6 -88 54 -166.5t126 -138.5q52 52 90 114q3 5 8 14t7 12t5.5 9.5t4.5 9.5t3.5 8.5t4 9.5 t3.5 10t3.5 12.5t3.5 15.5q-8 4 -10.5 3t-10.5 -9q-18 -5 -22.5 3.5t6.5 28.5q18 15 44 13t30 -25q4 -20 -16.5 -62t-39.5 -69q-40 -65 -88 -119q124 -85 254 -94q56 -4 82 4q17 1 20.5 -9.5t-9.5 -18.5q-34 -11 -95 -7q-148 12 -282 90q-90 -84 -199 -131 q-54 -25 -110.5 -11.5t-90.5 65.5q-19 38 -18.5 90.5zM51 2q-2 -40 12 -61q32 -56 138 -15q89 35 182 115q-139 100 -195 264l-4 12q-67 -90 -104 -176q-11 -30 -19 -64.5t-10 -74.5zM252 459q14 15 59.5 61.5t67.5 73.5q32 32 10 49q-19 11 -64.5 -53t-72.5 -131z" />
<glyph unicode="'" horiz-adv-x="223" d="M88 496q-5 0 1.5 26.5t16.5 54.5t15 33q4 3 -0.5 23.5t4.5 25.5q3 2 11 8t11.5 8t9.5 1.5t11 -6.5q25 -29 8 -68q-8 -16 -44.5 -61t-43.5 -45z" />
<glyph unicode="(" horiz-adv-x="598" d="M68 27q3 44 8 94q35 326 169 600t353 479q46 46 113 97.5t77 41.5q15 -11 25.5 -23t13 -26.5t-17.5 -21.5q-18 -7 -53.5 -29.5t-97 -76t-123.5 -123.5t-132 -183t-122 -242t-88 -254t-50.5 -214.5t-19.5 -162.5t-2 -111.5t10 -49.5q5 -8 12.5 -14t13 -9.5t9.5 -6.5t4 -7 t-6 -10q-17 -17 -42 -8q-67 27 -54 260z" />
<glyph unicode=")" horiz-adv-x="512" d="M-194 -283q0 7 42 45q27 25 41 41q1 1 46 50t84 92.5t101 118.5t111.5 141.5t100.5 147.5t82 149q51 112 83.5 205.5t50.5 186.5t16.5 181t-21.5 176q-29 123 -5 120q17 -3 40 -51q10 -20 14 -38q8 -30 16.5 -76.5t17 -119.5t4 -159.5t-23.5 -162.5q-38 -158 -190.5 -406 t-274.5 -370q-35 -35 -84.5 -85t-75 -75.5t-57 -54.5t-53 -42.5t-39.5 -17.5q-27 -4 -26 4z" />
<glyph unicode="*" horiz-adv-x="702" d="M385 1370q65 86 135 168q-58 -9 -114 -6q-33 11 -5 33q44 9 119 20l-63 64q-9 7 -7 15t10 10.5t17 -3.5l55 -49q0 42 3 88q5 14 15 14.5t15 -12.5q3 -68 10 -110l109 108q10 10 20.5 3t4.5 -21l-76 -93l117 19q11 1 16.5 -6t2 -15.5t-14.5 -11.5l-150 -33 q43 -41 125 -127q11 -21 2.5 -24t-26.5 4l-121 117q12 -126 12 -191q-4 -7 -7.5 -11t-6 -5.5t-6 0.5t-4.5 3t-5 6l-4 5q-14 73 -24 168q-86 -98 -127 -147q-12 -6 -20 -1.5t-7 21.5z" />
<glyph unicode="+" horiz-adv-x="866" d="M250 496q-7 37 6 39q30 0 74 8l63 8q16 37 39 74q20 33 35 51t25 14q15 -5 3.5 -69.5t-10.5 -65.5q2 -4 43 -4t92 2l50 2q24 0 77.5 -6t53.5 -14q-4 -28 -39 -31q-4 0 -38.5 1t-74 1.5t-81.5 1t-71.5 -1.5t-33.5 -6q-13 -13 -70 -127q-3 -7 -6 -27t-6 -24 q-7 -9 -17 -14.5t-20 1.5q-6 6 -8 30t7 66.5t30 83.5v1q0 1 0.5 2.5t-3 2.5t-10.5 1q-3 0 -33.5 -2t-53.5 -2t-23 4z" />
<glyph unicode="," horiz-adv-x="479" d="M193 14q-7 4 10 54t26 63q5 7 -5 31t-1 33q20 20 39 10.5t31 -35.5q22 -49 -2 -80q-14 -18 -53.5 -49.5t-44.5 -26.5z" />
<glyph unicode="-" horiz-adv-x="741" d="M213 285q0 15 9.5 26t15.5 11l30 2q30 3 72 6t86 5.5t79 1.5t44 -5q33 -16 51.5 -31.5t1.5 -24.5q-13 -7 -140.5 -6.5t-142.5 -3.5q-22 -10 -64 -3.5t-42 22.5z" />
<glyph unicode="." horiz-adv-x="479" d="M213 170.5q4 20.5 16 28.5q11 7 35.5 -2t32.5 -17q6 -6 -0.5 -29.5t-11.5 -23.5q-54 0 -66 12q-10 11 -6 31.5z" />
<glyph unicode="/" horiz-adv-x="460" d="M-58 -221.5q-4 15.5 3 28.5q16 25 62 116.5t106 214.5t130.5 266.5t139.5 279t128 244.5t101.5 170.5t55.5 50.5q17 -17 -60 -166t-133 -235q-33 -47 -210 -401.5t-183 -364.5q-11 -17 -36.5 -78t-47 -111.5t-27.5 -52.5t-15.5 10.5t-13.5 28z" />
<glyph unicode="0" horiz-adv-x="421" d="M-2 223q-1 98 41.5 186.5t120.5 151.5q16 12 39 17q22 39 34 53q25 30 53.5 52.5t58.5 34.5t53.5 -5.5t31.5 -67.5q23 -103 -25.5 -219.5t-134.5 -222.5q-48 -58 -95 -88t-103 -15q-32 7 -53 47.5t-21 75.5zM53 229q1 -23 12 -54.5t19 -37.5q50 -38 137 49 q63 66 110.5 148.5t65.5 165.5q22 67 8 132t-86 7q-37 -29 -59 -57q35 -6 35 -37t-31 -3l-3 3l-2.5 2.5t-2.5 1.5l-16 6l-41 -51q-30 -30 -39 -8q-110 -107 -107 -267z" />
<glyph unicode="1" horiz-adv-x="342" d="M-19.5 -52.5q3.5 24.5 17.5 56.5q21 50 91.5 206t130 286t59.5 131q0 3 38.5 78t40.5 75l8 14q9 14 19.5 30.5t23 28t21.5 7.5q6 -2 7 -9t-2 -18t-7.5 -23t-12 -28t-14.5 -29.5t-15 -29.5t-13 -27q-15 -25 -80.5 -163.5t-125 -265t-63.5 -130.5q-1 -1 -15 -34.5 t-29 -68.5t-27.5 -67.5t-12.5 -36.5t1.5 -18t1 -22.5t-4.5 -8.5q-6 0 -12 1.5t-14 9t-11.5 19.5t0 36.5z" />
<glyph unicode="2" horiz-adv-x="552" d="M-80 -37q-19 51 34 92.5t109 36.5q3 0 11 -1t12 -1q94 106 215 269t158 227q25 42 38 66t25.5 67.5t5.5 75.5q-6 23 -22 32t-38 4.5t-40.5 -12t-36.5 -18.5q-114 -61 -190 -207q-3 -6 -9 -18.5t-8.5 -18.5t-6 -16.5t-3.5 -18t2 -17.5t8 -20q6 -30 -14 -39t-33 21 q-4 70 31 135q45 90 112 157t150 95q94 31 137.5 -21t10.5 -141q-30 -87 -80 -164t-146 -191t-119 -144q-54 -67 -100 -113q23 -6 68 -23.5t83 -27t76 -6.5q12 1 26.5 10t32 24t23.5 19q8 10 29.5 5t17.5 -26q-29 -29 -55.5 -40.5t-68.5 -16.5q-48 -3 -91.5 8.5t-88 29 t-74.5 23.5q-59 -56 -103 -86q-14 -9 -20 -12.5t-17.5 -8.5t-21 -4.5t-19.5 5.5q-8 2 -10 10zM-53 -16q10 -16 37 5t82 79h-5q-33 0 -83 -29t-31 -55z" />
<glyph unicode="3" horiz-adv-x="458" d="M-101 -68.5q-6 17.5 3 41.5q10 20 30 38t31 16q23 1 27.5 -5t-10.5 -20q-29 -9 -50 -39q-16 -22 0 -26q127 18 227.5 86.5t155.5 187.5q40 103 -2 147q-18 19 -42 25.5t-45.5 4t-47.5 1.5q-4 0 -8 4v4q-5 5 -2 11t6 9t9 7t12 10q24 22 77 69t95.5 87.5t74.5 79.5 q130 149 40 146q-9 -1 -21 -3q-91 -43 -148.5 -82t-101.5 -88q-53 -64 -62 -99q-8 -30 5 -52q6 -11 2.5 -17t-13.5 -2q-26 20 -31.5 46t4 50.5t31.5 57.5q29 43 102.5 106t156 104t128.5 -1q18 -18 20 -41.5t-14 -53t-26.5 -45.5t-33.5 -44q-1 -2 -2 -3t-2.5 -3t-2.5 -3 q-46 -64 -262 -229h-4q13 -2 43 2t53.5 -2t46.5 -31q41 -45 34 -112.5t-58 -143.5q-35 -54 -115 -114.5t-164.5 -94t-124.5 -12.5q-15 8 -21 25.5z" />
<glyph unicode="4" horiz-adv-x="544" d="M-49 -33q-14 31 47 142q-1 1 30.5 47t92 135.5t108.5 161.5l234 346q1 1 2 3l3.5 7t5 9.5l5 9t4.5 6.5l2 2q0 1 1 2t3.5 4.5t5.5 6t6.5 5t6.5 4t6.5 0.5t5.5 -4q26 -42 0 -72q-19 -25 -216 -304t-198 -283q-112 -181 -118 -197q-5 -11 5 -10q6 0 34 10q7 4 47 15t76 21 l36 9l50 70l47 71l26 39q2 3 6 8l6 7.5l6 7.5t6 6.5t5.5 4.5t5 2t4.5 -1q26 -10 -26 -80l-76 -112q128 37 155 43q5 1 31 7.5t41.5 9.5t41.5 5.5t30 -4.5q19 -16 22 -34t-6 -21q-11 -8 -28.5 7t-28.5 15q-19 -3 -89 -22t-130.5 -36t-61.5 -16l-51 -81q-9 -13 -24.5 -68 t-20.5 -86q-2 -32 -14 -13q-7 10 -11 27q-3 13 4.5 55.5t14.5 57.5l26 53q11 22 21 37q-48 -18 -72 -25q-4 -1 -22.5 -6.5t-26.5 -9.5l-22 -8q-6 -3 -16.5 -6t-30.5 0t-27 20z" />
<glyph unicode="5" horiz-adv-x="796" d="M29 176q-3 11 0 18.5t13 17t13 13.5q14 14 50.5 55.5t50.5 59.5q12 19 91 167.5t89 168.5l5 7.5t4 6.5t2 5t-1 6.5t-6 7.5q-7 8 -3 13t11 10l8 5q62 36 180.5 63.5t206.5 39.5q33 3 52 -8t18.5 -23.5t-2.5 -17.5q-7 -9 -15.5 -10t-13.5 10q-2 12 -41 12q-2 0 -14 -2.5 t-31.5 -6t-36.5 -6.5q-28 -7 -73 -14l-84 -26l-88 -31q-4 -4 -13.5 -24.5t-7.5 -22.5l-86 -148l-86 -147q56 34 125 63q145 62 240 60q54 -2 90.5 -22t52 -52t21 -63.5t2.5 -67.5q-9 -62 -66.5 -134t-138.5 -128q-70 -44 -192 -81.5t-181 -43.5q-45 -4 -59.5 19t-3.5 61 q3 13 13 25t25.5 21.5t26.5 16t27.5 14t17.5 7.5q14 7 8 -9q-7 -19 -18 -30q-8 -4 -35.5 -35t-23.5 -35q1 -3 21 -3.5t56 4t78.5 15t97 35t103.5 58.5q122 80 175.5 177t25.5 142q-25 37 -95 43t-151 -14q-49 -12 -106.5 -36.5t-92 -43t-39.5 -23.5q-1 -1 -11.5 -8 t-19.5 -13.5t-20.5 -16.5t-17.5 -19q-14 -25 -47.5 -77.5t-38.5 -55.5q-4 -3 -12.5 4t-17 20.5t-11.5 26.5z" />
<glyph unicode="6" horiz-adv-x="458" d="M-96 -12q0 35 18 53l35 37l29 28q-5 10 -2 39q19 97 53 181q84 215 235 358q48 50 114 86.5t118 48.5q47 10 80 -14t22 -60q-7 -22 -12 -30.5t-7.5 -8t-8.5 4.5v2q0 2 6 14q11 26 -10.5 41t-67.5 8q-18 -3 -39 -14t-45.5 -30.5t-42 -35t-44 -40t-36.5 -33.5 q-68 -56 -186 -283q-35 -71 -50 -133q-5 -16 -10 -53q33 19 43 26q68 40 99 53q99 43 153 33q26 -5 48 -23.5t26 -43.5q16 -69 -37 -150q-62 -90 -201 -143q-79 -29 -139 28q-23 19 -45 72.5t-14 61.5q-19 -19 -27 -25q-31 -30 -35 -41q-10 -24 -17 -22q-3 1 -3 8z M39.5 80.5q-1.5 -19.5 5 -61t27.5 -58.5q82 -65 213 51q71 59 93 99.5t3 91.5q-11 28 -58 29t-90 -15q-26 -10 -74 -36t-82.5 -47t-33.5 -21q-2 -13 -3.5 -32.5z" />
<glyph unicode="7" horiz-adv-x="512" d="M-41 -106q2 25 36.5 84t67.5 106t35 47q1 0 81 114.5t81 114.5q0 1 -28.5 -2t-59.5 -8q-28 -4 -43.5 1t-13.5 16q1 8 24 12t25 6t69 14l66 13q31 39 47 65q51 74 96 129q52 67 101 144t45 86q0 5 -57.5 -6.5t-100.5 -22.5q-40 -11 -153 -51t-121 -51q-11 -18 -29.5 -73 t-24.5 -79q-7 -32 0 -59q6 -23 -12 -29q-1 0 -2.5 -1t-2.5 -1t-2.5 -0.5t-3 0t-3 2.5t-3 4.5t-3.5 7t-4 10.5q-11 32 -5 82q4 25 22.5 83t27.5 77q4 5 15.5 11t29.5 13t33 12l37.5 12.5l31.5 10.5q57 20 157 49t136 29q24 0 37.5 -2.5t25 -11.5t10 -30t-15.5 -54 q-25 -58 -121.5 -189.5t-119.5 -154.5q2 1 26 2t37 4q28 7 116.5 12t102.5 -6q3 -10 -43 -20t-90 -10q-30 -2 -113 -19q-27 -7 -67 -14l-172 -242q-35 -44 -94 -131.5t-70 -116.5q-7 -21 -18 -28.5t-18.5 3t-4.5 36.5z" />
<glyph unicode="8" horiz-adv-x="487" d="M-35 0.5q0 23.5 12 52.5q16 49 140.5 199t181.5 207q0 1 -12.5 4.5t-29 9.5t-24.5 10q-28 12 -66 51.5t-38 83.5q0 48 62 102t133 87q62 30 125.5 41t99.5 -2q84 -32 67 -94q-19 -56 -124 -179l-107 -102q5 0 14.5 -1.5t19.5 -7t9 -13.5q-3 -13 -39 -13q-25 0 -39 2 l-22 -24q50 -11 71 -46.5t16.5 -76t-24.5 -84.5q-73 -165 -194 -227q-142 -69 -185 -52q-11 5 -20 13t-18 22t-9 37.5zM7.5 -20.5q-1.5 -19.5 10.5 -20.5q95 0 187 74q82 69 142.5 184.5t21.5 151.5q-14 11 -60 28q2 2 -27.5 -29.5t-58.5 -62.5t-30 -31l-99 -114l-12 -18 q-13 -18 -31 -47.5t-28 -53.5q-14 -42 -15.5 -61.5zM195 561q2 -9 11 -18.5t20.5 -17t25.5 -14t27 -12t24 -9t17 -5.5l6 -2q-1 0 10.5 12.5t41.5 45t60 65.5q93 98 115 135q29 52 -8 66q-83 29 -238 -78q-59 -40 -89.5 -87.5t-22.5 -80.5z" />
<glyph unicode="9" horiz-adv-x="479" d="M61 -22q1 7 2 18t4 22.5t7.5 27t11.5 32.5q27 74 123 239.5t131 210.5q12 13 44.5 57.5t51.5 67.5l68 88l-105 -75q-115 -82 -149 -97q-49 -21 -70 -18.5t-43 24.5q-30 30 -18 74q8 24 62 88t112 92q95 46 172 19q24 -11 28 -24q2 -4 -1 -5l-4 -2q-3 -2 -9 4 q-26 21 -114 -4q-56 -11 -115.5 -74.5t-77.5 -111.5q-15 -35 11 -35q15 0 63 18q31 12 110.5 61t108.5 73q97 82 139 124q18 15 35 0q8 -8 4 -26q-1 -4 -4.5 -9t-3.5 -6l-205 -282l-115 -178q-24 -39 -57 -91.5t-55.5 -89t-32.5 -53.5q-29 -54 -50.5 -108.5t-19.5 -67.5 q1 -8 15.5 -15t13.5 -14q-2 -9 -20 -13t-29 5l-4 5q-3 5 -4 6t-4 7t-4 9.5t-2.5 11.5t-0.5 15z" />
<glyph unicode=":" horiz-adv-x="417" d="M169.5 223q-0.5 7 2.5 15.5t5.5 14t8.5 15t7 11.5q8 11 53 1.5t53 -22.5q3 -12 -5 -35.5t-20 -27.5q-11 -6 -50.5 -2t-49.5 16q-4 7 -4.5 14zM199 453q-21 15 8 73q9 20 45 11q17 -4 30 -39.5t9 -48.5q-7 -11 -41 -10t-51 14z" />
<glyph unicode=";" horiz-adv-x="479" d="M183.5 27.5q0.5 7.5 8 23.5t13.5 28t13.5 25t8.5 15q3 6 -8 32t-6 31q25 34 53 6q3 -3 11.5 -11t11.5 -11.5t8.5 -10.5t7 -12.5t1 -13t-4.5 -14.5q-13 -27 -55 -65t-58 -34q-5 4 -4.5 11.5zM236 403q16 14 35.5 0.5t35 -39t12.5 -34.5q-8 -12 -40 -14t-41 10 q-35 35 -2 77z" />
<glyph unicode="&#x3c;" horiz-adv-x="649" d="M66 537q8 24 47 48.5t102.5 52t65.5 28.5q51 26 124.5 54.5t83.5 18.5q3 -7 4 -11.5t-4 -11t-9 -10t-10.5 -9t-8.5 -7.5q-3 -3 -145.5 -81t-147.5 -87q-5 -7 0 -13.5t23.5 -18.5t27.5 -19q9 -8 74.5 -41.5t133.5 -77.5t95 -84q38 -57 15 -57q-6 0 -29 10l-272 162 q-24 12 -91 57q-89 63 -79 97z" />
<glyph unicode="=" horiz-adv-x="825" d="M179.5 387q-5.5 16 8.5 27q11 8 40 12t53.5 4t61 -1t40.5 -1q21 0 140 3t124 3q78 0 78 -22q3 -26 -45 -35q-15 -3 -155 -17.5t-154 -17.5q-23 -4 -87 -4.5t-71 4.5q-6 3 -17 16t-16.5 29zM199 600q4 4 24 4h17l133 4q150 4 166 0q16 -5 44 -8t46.5 -6t21.5 -8 q1 -1 4.5 -8.5t4 -10t-0.5 -7.5t-9 -8t-21 -5q-21 -3 -95 -5.5t-132 -3.5t-66 -1q-45 0 -86 9q-13 4 -12 7q2 4 -9.5 14t-22.5 19.5t-7 13.5z" />
<glyph unicode="&#x3e;" horiz-adv-x="620" d="M106 285q4 24 38.5 55.5t56.5 42.5q10 4 62.5 36.5t100 62.5t48.5 30q0 -1 19 8.5t38.5 22.5t19.5 20q1 7 -46.5 30t-94.5 42.5t-49 19.5q-107 48 -111 58q-12 12 -17 42q-5 33 18 30q2 0 4 -1q38 -10 114 -47l84 -41l82 -39q13 -7 38.5 -21t38 -21t15.5 -11 q9 -11 15.5 -25t6.5 -32.5t-12 -30.5q-22 -22 -133 -84l-114 -63q-12 -7 -39 -25.5t-41 -26.5q-78 -51 -86 -65q-14 -32 -29 -43q-4 -3 -12 8t-13.5 30.5t-1.5 37.5z" />
<glyph unicode="?" horiz-adv-x="909" d="M70 -254q4 12 39.5 23.5t44.5 7.5q6 -6 9 -31.5t-1 -34.5q-13 -13 -38.5 -28t-35.5 -5q-12 10 -17.5 32t-0.5 36zM111 -16q-5 28 8 79q9 26 14 35q22 76 163.5 260.5t311.5 378.5q79 92 150 184.5t108.5 151t32.5 66.5q-5 7 -51.5 -2t-105.5 -31t-91 -47q-7 -6 -45 -32.5 t-55.5 -41t-49 -42t-56.5 -57.5t-48 -65q-2 0 -16.5 -25.5t-30 -60t-18.5 -53.5q-2 -16 -5 -27q-1 -4 1 -5l6 -5q10 -10 4.5 -18t-16.5 -6q-16 0 -35.5 34t-12.5 78q6 38 43 102.5t115 146t172 134.5q70 40 131 61t99 21.5t60.5 -4.5t33.5 -14q59 -54 24 -117 q-20 -35 -186.5 -237t-196.5 -232q-34 -34 -196.5 -254t-177.5 -266q-11 -32 -13.5 -53.5t0 -27t4.5 -5.5t9 -4.5t12.5 -12.5t1.5 -16q-7 -9 -28 -13.5t-43 5t-27 37.5z" />
<glyph unicode="@" horiz-adv-x="1417" d="M135 47q-3 135 64.5 284.5t183.5 270.5t248 176q84 35 176 42t180 -23q95 -38 145.5 -104.5t53.5 -143t-31 -157t-100 -148.5q-40 -40 -98.5 -77.5t-102.5 -37.5q-54 0 -82 21t-29 53.5t5 70.5q-11 -8 -22.5 -18.5t-39 -35.5t-63.5 -56q-37 -27 -68 -23.5t-48 32.5t-7 65 q13 38 49.5 90.5t87.5 98.5t105 56t102 -37q7 -8 3.5 -15.5t-11.5 -8.5t-15 6q-39 35 -127 -38t-116 -128q-22 -42 -14 -64q8 -18 42 5l45 33q8 7 34.5 27.5t39.5 33.5q33 29 55 57q20 39 41 60l2 2l2 2v-2q10 4 17.5 -1t5.5 -16q-11 -22 -29 -67q-5 -13 -9 -40t-5.5 -59.5 t10.5 -54t37 -18.5q44 7 91.5 38t82.5 68q49 50 81 106t46.5 117t-6.5 123t-78 113q-119 107 -344 41q-290 -79 -453 -424q-97 -206 -63 -371q31 -142 152 -216.5t266 -53.5q173 23 323.5 126.5t268.5 256.5q9 24 22 21q14 -3 5 -26q-1 -4 -3 -7q-64 -84 -138 -153.5 t-161.5 -127t-188.5 -89.5t-204 -32q-101 0 -195.5 49.5t-156 137.5t-64.5 190z" />
<glyph unicode="A" d="M-147 -80q-2 21 -2 42q0 148 116 290q19 21 43 40t53 33.5t58 12.5t51 -23q14 -16 7 -37t-24 -27.5t-34 7.5q-16 14 -35 14q-40 0 -94 -61q-85 -107 -98 -262q-1 -12 -1 -22q0 -87 68 -88q6 0 14 1q113 11 346 199q42 33 68 57q136 120 373 354.5t303 297.5l82 77 q-46 -12 -176.5 -49t-191.5 -52.5t-152.5 -31.5t-157.5 -16q-143 0 -143 135q0 54 34 143q6 9 15 9q5 0 12.5 -7.5t7.5 -13.5q0 -18 -11 -59t-11 -68q0 -60 22.5 -84t71.5 -24q36 0 87 8t81 15t100.5 25t81.5 21q149 39 377 96q25 24 108.5 105t122 116.5t107 97.5 t127.5 109t119 89q1 0 22 15t31 22t35 23.5t41 25t40 21.5t41.5 19t36.5 10.5t34 2.5t26 -10q8 -7 8 -21q0 -46 -90 -168q-83 -121 -186 -278l-60 -95q140 7 262 7h49h43q35 1 73 1h24q54 0 110 -6q70 -6 139 -15t132.5 -31.5t111.5 -52.5t76.5 -79.5t28.5 -111.5 q0 -27 -25.5 -74t-44.5 -47q-20 -1 -29.5 17t-1.5 36q8 8 23.5 22t21.5 20.5t11.5 18t5.5 25.5q0 55 -39.5 99.5t-103.5 72t-132 43.5t-139 23q-127 12 -275 12q-160 0 -343 -14q-205 -333 -344.5 -593.5t-233.5 -527.5q-61 -192 -61 -292q0 -68 28 -93q4 -1 3 -5 q-1 -1 -1 -2.5v-2.5v-2q-36 -4 -56 16t-23 58q-1 15 -1 31q0 23 2 49q4 42 17 89.5t24 81t21 58.5q95 268 239.5 541t342.5 592q-176 -15 -328 -43q-13 -2 -104 -23q-54 -54 -153.5 -155t-161.5 -163t-154.5 -152.5t-166.5 -155.5t-161.5 -137t-174.5 -132t-173 -109 q-33 -19 -74 -30q-38 -10 -76 -10h-7q-42 1 -71.5 28.5t-33.5 81.5zM1300 895q190 42 414 57l74 117q97 155 227 332q1 2 7 10.5t9.5 14.5t9.5 16.5t7.5 16.5t3.5 15t-2 11q-2 4 -8 4q-24 -1 -108 -57q-106 -70 -204 -147t-116 -95q-141 -122 -314 -295z" />
<glyph unicode="B" horiz-adv-x="1298" d="M-122 637q-2 18 -2 35q0 59 20 106q8 18 17.5 42.5t14.5 36t15.5 30t25.5 39.5q96 138 261.5 266t352 215.5t351.5 116.5q84 17 152 17q139 0 210 -71q47 -48 51 -112q1 -9 1 -18q0 -53 -20 -101q-23 -56 -70 -120t-83 -102t-77 -77q-60 -53 -140.5 -112t-131 -93 t-152.5 -100q-60 -39 -88.5 -52t-49 -17t-40.5 -13q116 35 233 35q29 3 63 3q16 0 36 -1q56 -2 98 -17q30 -11 55 -19.5t28 -9t20.5 -9t26.5 -13.5t52 -30q56 -34 84 -88q25 -49 26 -101v-10q-2 -58 -22.5 -114.5t-54.5 -104.5q-121 -172 -308.5 -312t-386.5 -190 q-76 -20 -142 -23q-11 -1 -22 -1q-54 0 -100 13q-55 15 -90 51q-34 38 -48 96q-6 26 -6 56q0 39 9 86q20 93 66.5 212.5t85 200t98.5 198.5q196 379 428 641q39 10 58 -1.5t14 -33.5q-218 -244 -351 -483l-18 -33q191 100 325 193t289 237q19 18 36 34t44.5 43.5t49 53 t47.5 57.5t42.5 61t31 60t16.5 59t-4 53t-28 46t-58 35q-31 13 -78 16q-16 2 -38 2q-59 0 -163 -12q-193 -35 -383 -135.5t-358 -241.5q-117 -99 -190 -197.5t-89 -218.5q-2 -19 -2 -35q0 -75 41 -110q10 -8 18.5 -8t22.5 4t29 4q25 -3 37.5 -24t3.5 -40.5t-37 -19.5 q-65 0 -107 45q-40 44 -48 125zM84 -231q-1 -13 -1 -26q-1 -55 25 -90q32 -43 83 -55q36 -8 78 -8q19 0 39 2q66 5 121.5 20.5t102.5 35.5q175 73 323 190.5t235 265.5q57 96 63 187l-2 2q2 2 2 14v21q-11 54 -107 74q-44 9 -88 10q-51 0 -100 -13q-175 -39 -399.5 -175.5 t-321.5 -276.5q-21 -31 -25 -69q-1 -6 -1 -12q-1 -32 15 -62q18 -36 58 -56q25 -17 22 -32t-32 -15q-68 54 -84 119q-6 -24 -6 -51zM176 45q74 80 180 152q46 31 83.5 54.5t101 59t117.5 59.5t122.5 45t126.5 27q19 2 39 1q39 0 80 -7q61 -11 111 -43q-50 109 -222 152 q-60 15 -128 15q-29 0 -60 -3q-162 -8 -334 -70q-32 -60 -147 -315q-38 -81 -70 -127z" />
<glyph unicode="C" horiz-adv-x="1214" d="M-74 -43v15q0 82 16 162q17 87 50 179.5t75.5 177.5t96 171t107 160t112.5 145q58 69 145.5 151t196.5 166.5t223 136.5q98 44 174 44q13 0 25 -1q69 -8 103 -61q28 -44 27 -116q0 -15 -1 -32q-8 -85 -66.5 -200t-145 -214t-167.5 -134q-24 -7 -49.5 -8t-45.5 13t-20 42 q7 17 28 31q15 10 19 -1q0 -29 18 -37.5t42 -1t43 17.5t24 15q107 98 185.5 219.5t97.5 249.5q4 26 4 49q-1 46 -17 79q-24 49 -85 59q-13 2 -27 2q-22 0 -46 -5q-40 -8 -86 -34t-77 -45t-81.5 -61t-64 -54t-57.5 -51q-503 -461 -645 -940q-21 -67 -34 -131.5t-19 -139.5 q-1 -20 -1 -39q-1 -54 11 -106q16 -70 54 -121q36 -51 91 -77q53 -25 112 -25h5q62 1 118.5 14t111.5 37q190 75 403.5 242.5t350.5 341.5q17 12 20.5 11t3.5 -13q-169 -218 -389 -388t-440 -247q-83 -31 -167 -33h-10q-79 0 -155 31q-62 29 -108.5 79t-63.5 105 q-23 80 -25 170z" />
<glyph unicode="D" horiz-adv-x="1294" d="M-219 180v60q11 125 66 244t145 255q84 119 198.5 233.5t251.5 215t293 158.5q137 50 262 50q17 0 35 -1q117 -8 217.5 -66.5t147.5 -163.5q37 -87 41 -186v-25q0 -86 -22 -168q-24 -94 -72 -194t-107 -188t-131 -176t-139 -157t-136 -132q-95 -87 -236 -185.5 t-249 -148.5q-48 -23 -102.5 -37t-108.5 -15h-3q-52 1 -82 31q-23 24 -23 65q0 13 2 29q6 43 23 83.5t51.5 87.5t52 68.5t63.5 74.5l27 31q182 613 483 960q15 13 37 3q14 -6 8 -17q-290 -470 -444 -867q234 207 592 299q23 -5 22.5 -9t-24.5 -15q-251 -63 -437 -191 q-98 -67 -178 -147q-88 -234 -131 -440q66 16 152 55q189 96 383.5 259t359 371.5t246.5 409.5q33 80 49 160q14 70 15 143q-1 11 -1 21q-2 84 -42 156.5t-115 117.5q-116 67 -248 67q-99 0 -205 -38q-222 -79 -416.5 -237t-335.5 -363q-187 -271 -204 -483q-2 -22 -2 -41 q0 -35 6 -60q4 -23 17.5 -34.5t25 -10t18.5 7.5q23 8 34 -13t-10 -34q-7 -4 -16 -6q-3 -1 -10 -3t-12.5 -3t-9.5 0q-39 7 -55.5 49t-16.5 90zM68 -362q8 -26 26 -35.5t49 -8.5q43 208 84 361q-42 -47 -94 -131q-10 -17 -55 -115q-12 -31 -11 -53q-1 -10 1 -18z" />
<glyph unicode="E" horiz-adv-x="1318" d="M-39 121q65 304 346 559q-57 0 -135 10q-60 8 -94 46q-31 34 -31 91v13q4 61 45 125.5t111.5 124t152.5 112t181 103.5q-40 19 -78 49q-56 40 -79 86q-15 30 -15 68q0 20 4 42q5 26 25.5 51t43.5 25q10 -4 12 -12.5t-6 -14.5q0 -3 -3 -5t-6.5 -3t-4.5 -2q-4 -4 -8.5 -8 t-6 -5.5t-4 -5t-5.5 -9.5q-13 -24 -12.5 -59.5t16.5 -57.5q31 -50 116 -98l45 -23q228 107 394 135q160 33 297 33q22 0 43 -1q177 -6 177 -79v-6q-1 -10 -5 -21q-12 -32 -37 -55.5t-63.5 -38.5t-64.5 -22t-67 -15q-167 -30 -309 -30q-173 0 -307 45q-185 -98 -301 -174 q-98 -68 -170 -157q-66 -81 -66 -133q0 -38 35 -60q36 -23 111 -27q35 -2 108 -2l33 28q51 42 116 82.5t138 74.5t129 38q7 1 15 1q47 0 77 -26q10 -16 9 -31t-16.5 -31.5t-32 -30t-38 -26.5t-34.5 -19.5l-21 -10.5q-151 -65 -309 -80q-317 -287 -379 -573q-11 -51 -11 -95 q0 -96 54 -151q68 -71 216 -72q20 0 42 2q93 5 207.5 39t213 77t224.5 112.5t203 116.5t188 118q29 2 30 -2q1 -3 -7 -12q-188 -125 -467 -275q-94 -51 -149.5 -78.5t-136.5 -59.5t-162 -47.5t-173 -19.5q-15 -1 -30 -1q-167 1 -257 85q-69 64 -70 172q0 47 13 101zM455 723 q116 13 204 49q173 72 173 115q0 4 -1 7q-1 4 -4 7q-6 6 -23 6q-27 0 -81 -14q-26 -8 -53 -20t-43.5 -20.5t-47 -30.5t-38.5 -28.5t-44.5 -36.5t-41.5 -34zM670 1286q128 -35 273 -35q141 0 298 33q4 1 19.5 4.5t25.5 6.5t28.5 8t31 10t29 11.5t27.5 13.5t20.5 15.5t14 18 t3.5 19.5q-2 12 -10 20t-23 13t-26 7t-33 5q-37 3 -74 3q-282 0 -604 -153z" />
<glyph unicode="F" horiz-adv-x="612" d="M-154 499q1 17 10.5 24t28.5 -9q2 -2 11.5 -13t15.5 -16q10 -1 23 -2q53 0 141 29q125 49 227 82q32 51 92 146t86 137q71 115 275 413q-28 -5 -604 -106q-36 -6 -78 -8q-7 0 -14 -1q-35 1 -72 7q-44 8 -75 26t-47 52q-8 16 -7 38q0 22 8 48q26 78 98 163q13 9 34 -7.5 t13 -27.5q-4 -5 -25 -16.5t-44 -36.5q-12 -14 -25.5 -40t-17.5 -46q-7 -33 2.5 -55.5t37.5 -33t58 -14.5q16 -2 39 -3q20 0 45 2q53 4 94 9t107 15q28 5 518 99q54 79 180 241q12 8 35.5 -6.5t19.5 -27.5q-70 -95 -135 -189l103 19q454 82 780 83q33 0 57.5 -1t71 -4t82 -8 t80.5 -15.5t76.5 -25t60.5 -38.5q30 -24 42 -52q11 -25 12 -60v-8q-2 -40 -23 -88q-72 -166 -265 -242q-16 -7 -33.5 -11.5t-36 -5.5t-27 11t-1.5 37q15 8 48.5 7.5t51.5 2.5q92 23 174 119q63 73 76 174q4 29 -6.5 52t-34.5 38t-37 21t-36 14q-36 11 -76 18t-71 10 q-27 3 -67 3h-14q-50 0 -76 -2t-88 -6t-86 -5q-321 -17 -778 -100q-192 -289 -309 -469l-139 -213q25 6 28 8q6 1 30 7.5t32 8t28 6.5t31 7t28 4.5t32 4t30 1.5q19 4 54.5 1.5t71 -8.5t61.5 -25t26 -48q4 -15 -21 -36t-50 -3q1 6 1 12q0 27 -26 45q-32 22 -78 22h-13 q-38 0 -71 -5q-117 -20 -223 -47q-146 -231 -229 -424q-3 -8 -32 -75.5t-42 -101t-33.5 -101t-23.5 -110.5q-1 -10 -1 -20q0 -34 8 -71q10 -48 40 -78q10 -21 2.5 -24t-25.5 5q-28 23 -45.5 53.5t-26.5 59.5q-9 27 -9 66t4 75q2 30 15 76.5t20.5 71.5t26 71.5t24.5 60.5 t24 54q71 169 201 383q-103 -29 -175 -57q-108 -46 -175 -46q-51 0 -78 27q-8 5 -7 22z" />
<glyph unicode="G" horiz-adv-x="1757" d="M-129 29.5q0 38.5 4 69t19.5 78t25 71t33 76t30.5 66.5l4.5 9l4 8l4.5 9q201 403 657 788q133 114 330 215q57 29 126 47q67 18 136 18h3q71 -1 125.5 -22t81.5 -78q17 -36 17 -84q0 -28 -6 -61q-33 -178 -168.5 -324t-304.5 -178l-20 -4q-21 -5 -30 13t9 42 q33 21 85 24.5t75 16.5q94 49 175 138.5t122 187.5q30 72 31 131q1 4 1 7q0 55 -25 93q-25 39 -80 56q-33 9 -73 9q-29 0 -63 -5q-116 -18 -237.5 -93.5t-255.5 -189.5q-441 -358 -646 -770q-29 -57 -52 -113.5t-47 -133.5q-23 -72 -23 -136q0 -4 1 -8q1 -67 33 -108 q28 -36 78 -49q33 -9 69 -9q18 0 36 2q55 7 120 25t115 37.5t97 38.5q20 9 28 12q519 229 1043 756q10 7 19 2t7 -17q-65 -338 -215 -649q103 44 184 84q5 3 32 16t35 16.5t31.5 15.5t34 18t30.5 17.5t32.5 20.5t28.5 20t30 23q23 10 26 8.5t-3 -20.5q-28 -22 -65 -45 t-59.5 -35t-72.5 -37.5t-65 -33.5q-88 -43 -215 -101q-40 -82 -131 -237q-149 -242 -365 -430q-70 -59 -142 -86q-62 -24 -137 -24q-11 0 -22 1q-48 5 -75 42q-19 26 -19 57q0 15 4 30q27 106 108.5 194.5t200.5 172.5q121 90 324 192q92 48 182 84q136 284 238 633 q-122 -117 -200 -188t-191.5 -162t-221.5 -160q-224 -138 -377 -205q-38 -16 -65 -27.5t-75.5 -29.5t-85.5 -28.5t-87 -21t-89 -11.5h-11q-33 0 -69 5q-42 6 -72.5 23.5t-56 48.5t-38.5 76q-10 32 -10 70.5zM490 -665q0 -25 12 -42q15 -20 43.5 -24t62 6t58.5 21t49 24 q128 68 246 198t204 275q31 51 97 176l-148 -73q-92 -46 -125 -63.5t-110 -61.5t-118 -75t-95 -79.5t-95 -101.5q-12 -15 -23.5 -33t-26 -45.5t-23 -52t-8.5 -49.5z" />
<glyph unicode="H" horiz-adv-x="1347" d="M-59 147q12 25 37.5 52t50.5 35q19 16 41.5 -4t17.5 -42q-9 -14 -50.5 -22.5t-49.5 -24.5q-15 -32 -15 -57q-1 -23 13 -39q24 -28 81 -28q10 0 21 1q106 10 201 53t203 117q146 101 271.5 234t211.5 283q-135 -23 -434 -91q-40 -9 -125 -34.5t-150 -39.5q-47 -10 -85 -9 q-14 0 -27 1q-56 0 -84 42q-12 17 -12 34q0 25 24 51q12 11 22 0.5t0 -22.5q-17 -18 -5.5 -38t36.5 -26q30 -6 58.5 -6t56.5 6q340 79 397 91l340 65q48 91 66 137q65 159 65 276q0 37 -6 70q-10 54 -42 90.5t-74 51.5t-91 21q-20 2 -39 2q-28 0 -55 -5q-144 -24 -286 -109 t-251 -202q-102 -102 -102 -168q0 -17 -21 -13q-21 3 -26 21q0 77 100 182q111 117 268.5 203.5t311.5 110.5q39 5 87 7q8 0 15 1q41 -1 83 -11q50 -12 92 -33t70.5 -63t31.5 -98q1 -18 0 -37q0 -203 -109 -422q64 12 217 29q191 292 398 502q103 103 231 190q5 3 29.5 18 t39.5 26.5t23 21.5q9 4 20 2t18.5 -9.5t2.5 -15.5q-174 -108 -330 -270q-185 -185 -360 -459q102 7 198 7q81 0 156 -5q71 -5 110 -9.5t91.5 -17.5t90.5 -38t69 -64q3 -18 -3 -22.5t-20 4.5q-27 32 -65 55.5t-72 35.5t-86.5 19.5t-83 9.5t-86.5 4h-9t-7.5 0.5t-8.5 0.5 q-49 2 -97 2q-97 0 -193 -8q-207 -325 -339.5 -681t-136.5 -653v-5q0 -79 30 -105q16 -13 41 -14q24 0 58 12q9 -5 15.5 -14.5t2.5 -21.5t-24 -18q-14 -2 -27 -2q-60 0 -100 39q-48 47 -49 133q4 312 127.5 657.5t329.5 667.5q-65 -5 -213 -26q-85 -161 -223 -306.5 t-295 -254.5q-96 -67 -218 -114.5t-237 -59.5q-14 -1 -27 -1q-73 0 -113 39q-26 25 -26 61q0 29 17 64z" />
<glyph unicode="I" horiz-adv-x="806" d="M-298 -402.5q-6 11.5 5 19.5q250 123 553 180q28 98 59 186.5t79.5 193.5t75 162t99 187t94 167.5t113.5 197.5q25 45 61 99.5t110.5 162.5t133.5 195q4 4 17 7t29.5 -0.5t23.5 -15.5q-49 -80 -150.5 -226.5t-152.5 -233.5q-15 -26 -79 -136t-82.5 -142t-72 -126.5 t-75 -137.5t-63 -125t-64 -137.5t-50.5 -127.5t-49 -140q72 14 226 29q41 4 78 4q72 0 131 -16q90 -25 145 -72l-6.5 -13t-7.5 -13q-70 38 -151 49.5t-191 11.5q-120 0 -234 -18q-7 -20 -8 -29q-7 -28 -30 -23t-23 31q0 4 1 7l1 3q-235 -46 -527 -168q-13 -4 -19 7.5z M-256 1118q5 14 15.5 14t15.5 -12q0 -18 23.5 -24t57.5 -1t55 9t34 8q63 20 181 52.5t148 41.5q412 120 490 141q471 124 822 124h16q49 0 96 -3q228 -11 262 -168q5 -24 -14 -51.5t-41 -13.5q10 38 10 68q0 26 -12 47t-29 34t-46.5 22.5t-52 14t-57.5 7t-52 2.5h-47h-11 q-191 -2 -427 -44t-442 -99t-393 -113q-187 -54 -328 -88q-111 -26 -171 -27q-16 0 -29 2q-28 2 -51 16t-23 41z" />
<glyph unicode="J" horiz-adv-x="1310" d="M-420 944q-4 24 -4 48t4 48q10 36 39 42q26 6 35 -17q5 -12 2 -27q-7 -43 -7 -79q0 -100 53 -153q48 -48 132 -48q42 0 92 12q79 17 167 44.5t197 66t163 55.5q27 8 113.5 36t124.5 39.5t106 32t123.5 36t111.5 28.5q0 7 1 18.5t1 18.5q5 13 41 10.5t41 -14.5v-13 q205 46 371 66q11 1 38 5q57 8 91.5 11.5t98.5 7.5h34q41 0 69 -6q40 -9 80.5 -26.5t55.5 -55.5q9 -22 9 -49q0 -20 -5 -43q-28 -39 -31 4q1 8 1 16q0 34 -15 58q-18 31 -60.5 43t-76.5 19q-18 3 -43 3q-23 0 -53 -3q-63 -6 -85.5 -8.5t-75.5 -11.5q-14 -2 -20 -3 q-188 -24 -385 -68q-6 -117 -36.5 -243t-82.5 -252.5t-101.5 -227.5t-117.5 -223q-17 -32 -45 -80q206 97 584 230q14 -2 18 -4.5t0.5 -4.5t-7 -5.5t-1.5 -6.5q-368 -125 -614 -243q-223 -362 -473 -598q-89 -80 -133 -107q-56 -34 -100 -34q-7 0 -13 1q-62 7 -92 38 q-30 30 -30 74q0 45 26 105q11 25 27 49.5t30 42.5t39.5 40t39 33.5t46 33t44 29t49 30t46.5 27.5q153 94 412 221q166 264 275.5 537.5t125.5 517.5q-350 -83 -762 -229q-15 -6 -48 -18q-52 -20 -80.5 -30t-84 -28t-90 -24.5t-85.5 -13.5q-28 -3 -51 -3q-18 0 -33 2 q-33 5 -72.5 18t-65 39t-47 67t-31.5 97zM-96 -553q-6 -27 -6 -49q0 -57 47 -72q14 -4 30 -4q20 0 43 7q41 12 85 45t80 64.5t80.5 82t64 74t51.5 63.5q137 177 225 317q-229 -117 -508 -286q-62 -39 -118.5 -108t-73.5 -134z" />
<glyph unicode="K" horiz-adv-x="1622" d="M-4 -231q-3 24 -3 50q0 28 4 58q7 59 21 106.5t31 84.5q52 126 150 297q-41 24 -72 55q-12 9 -27 27t-27 40t-5.5 42t36.5 28q15 3 29 3q74 0 141 -73q97 149 322.5 449t329.5 463q28 36 72 103q37 56 38 69q0 3 -2 4q-15 11 -37.5 11.5t-48.5 -7.5t-52 -19.5t-52 -27 t-43.5 -26.5t-32.5 -21q-115 -74 -219 -179.5t-180 -224.5q-68 -120 -68 -163q0 -11 -14 -13.5t-28.5 2.5t-16.5 15q3 71 58.5 160t139 170.5t162.5 146.5t148 110q36 24 56 37t59.5 33.5t67.5 28.5t61.5 7.5t58.5 -16.5q21 -13 24 -38t-8.5 -54.5t-21.5 -48.5t-21 -37 q-83 -136 -193.5 -289.5t-239.5 -326t-206 -283.5q-13 -17 -33.5 -49t-29.5 -45l53 -70q12 -16 53 -63q4 -2 33 -8q88 -19 187 -20q311 0 722 190q77 36 129 62.5t126 69t126.5 82t107 92.5t91.5 109q70 101 70 191q0 31 -9 61q-21 72 -69 104q-38 24 -79 24q-12 0 -23 -2 q-53 -9 -103.5 -46.5t-77.5 -93.5q-15 -21 -38.5 -17.5t-33 24t1.5 48.5q28 58 88 93q61 34 125 36q4 0 8 1q60 0 117 -21q104 -47 133 -172q1 -13 1 -26q0 -258 -348 -474q-109 -69 -329 -172q-74 -35 -161.5 -67.5t-193 -61.5t-205.5 -45q-97 -16 -192 -17q-4 1 -6 1 q-98 0 -171 24q10 -14 20.5 -25t31 -32t36.5 -37q150 -150 262 -213q141 -79 309 -99q47 -5 94 -5q119 0 232 36q35 12 72 34t60 39t63.5 50t58.5 47q21 7 33 -5t10 -27.5t-8 -22.5q-129 -118 -267 -164q-106 -37 -222 -37q-118 1 -246 39q-252 76 -418 244q-88 79 -177 195 q-47 15 -135 49q-67 -118 -131 -277q-3 -6 -9 -22q-9 -22 -14.5 -35t-15.5 -39.5t-15.5 -44.5t-13 -45t-9 -46t-3 -41.5t4 -38t14.5 -29t25.5 -21t39.5 -8.5q16 -7 11 -17.5t-25 -21.5q-57 5 -90 40.5t-39 84.5zM120.5 481.5q2.5 -14.5 12.5 -26.5t17 -15q10 -7 30.5 -23.5 t34.5 -25.5l43 72q-45 45 -90 45q-13 0 -27 -4q-23 -8 -20.5 -22.5zM281 354q56 -27 96 -43q-22 28 -23 29q-15 15 -47 63z" />
<glyph unicode="L" horiz-adv-x="890" d="M-358 481q0 11 18 28t25 13q140 -108 274 -108q193 0 370.5 70.5t368.5 195.5l29 43q28 41 76 119.5t90.5 150t102.5 161.5t115.5 165t124.5 149.5t134 126t140 83.5t147 32q41 0 62.5 -32t21.5 -70q0 -55 -35 -122t-99.5 -136.5t-131.5 -131.5t-156 -130t-145 -109 t-127.5 -90t-77.5 -53q-42 -31 -189 -136q-23 -37 -94.5 -151t-102 -161.5t-94 -144.5t-106 -157.5t-101 -139t-114.5 -145.5l-16 -18q83 6 232.5 12.5t201.5 9.5q106 5 161 9.5t150 16t169 33t136 54.5q33 8 33 -18q0 -9 -4 -29q-53 -28 -115.5 -46t-136 -26t-128 -11 t-140 -5t-123.5 -4q-26 -1 -197 -8t-264 -13q-63 -64 -138 -110q-65 -40 -115 -40q-8 0 -15 1q-37 5 -59.5 23t-18.5 46q1 18 10 31.5t20 21t29.5 13.5t31 8t33.5 5t29 5q21 3 63 7.5t64 7.5q72 77 145.5 176t179 257t118.5 177q93 132 160 238q-181 -113 -353 -177.5 t-350 -64.5q-23 0 -68.5 4.5t-105 14t-102.5 30.5t-43 49zM-195 -317q0 -28 26.5 -38.5t57.5 -4t48 21.5q44 31 98 88q-230 -25 -230 -67zM819 762q6 5 56 39.5t75 54.5q254 178 353 255q409 320 409 513q0 24 -14.5 38.5t-38.5 14.5q-35 0 -74 -14.5t-73 -35.5t-74 -56 t-69 -65t-67 -74.5t-59.5 -71.5t-54 -69.5t-43.5 -55.5q-158 -207 -326 -473z" />
<glyph unicode="M" horiz-adv-x="1517" d="M-160 -113q-5 11 -5 26q0 103 252 400q5 6 7 9q181 213 465 479q99 190 150 342q19 56 32 104q13 49 27 119q9 48 9 86q-1 19 -3 35q-6 51 -26 96.5t-74 62.5q-28 9 -62 9q-33 0 -73 -8q-134 -30 -276 -123.5t-214 -204.5q-18 -27 -27.5 -57t-8.5 -58t23.5 -46.5 t65.5 -18.5q13 -5 9.5 -24.5t-17.5 -24.5q-66 0 -94 44q-21 33 -21 73q1 13 3 27q10 56 43 103q102 129 230.5 225t266.5 126q41 5 85 5h15q52 -1 102 -26.5t73 -71.5q21 -44 29 -95q7 -48 7 -86q1 -42 -13 -103q-12 -59 -22 -90.5t-30 -96.5q-35 -104 -90 -217 q157 138 209 180q22 20 45 39t55.5 44t62.5 45t63.5 38.5t61 28t52.5 9t41 -14.5q23 -23 23 -70q0 -87 -78 -258q-5 -11 -7 -16q-68 -150 -150 -284.5t-196 -299.5l17 19q20 20 84.5 85t94.5 94.5t82 80.5t97 92t90 80q4 4 20 18l32 28t39 32.5t44 33.5t44 29t42 21t35.5 7 t26.5 -10q20 -15 20 -50.5t-14.5 -76.5t-36.5 -87.5t-42.5 -81t-37.5 -58.5q-41 -67 -115 -180t-123 -191t-106 -179t-97 -202.5t-63 -203.5q-6 -17 -11 -67q-2 -23 -3 -45q0 -27 4 -54q6 -49 27 -49q19 0 27 1t18.5 11.5t15.5 32.5q21 9 19 -6q-2 -9 -11 -29 q-12 -26 -40 -38q-12 -5 -26 -5q-18 0 -38 8q-43 20 -45 110q0 6 -1 11q0 84 22 169q23 90 50 152q49 119 112.5 238.5t108 191.5t120 189t106.5 166q103 172 109 184q38 70 38 97q0 17 -15 17h-1q-22 0 -74 -32l-71 -53q-17 -13 -45.5 -38t-40.5 -34l-93 -82 q-126 -118 -188 -180q-37 -35 -142 -147.5t-169 -167.5q-12 -6 -20.5 2t-2.5 20q51 98 142.5 251.5t125.5 213.5q18 31 62 106.5t69 120t58 112.5t55 128q15 42 15 67q0 39 -36 40q-4 0 -9 -1q-65 -8 -226 -124q-166 -127 -334 -275q-20 -39 -57.5 -108t-50.5 -93 q-12 -23 -54 -104.5t-75.5 -142.5t-86 -151t-101.5 -155t-105 -127.5t-114.5 -96.5t-112.5 -36q-16 0 -35 10t-23 31zM-135 -109q12 -17 29 -20t38 8.5t44 29t48 46.5t48 56t47.5 62l42 60t36 54.5t26 41t14.5 23.5q187 295 294 496q-252 -239 -423 -449q-3 -3 -11 -13 q-240 -280 -239 -370q-1 -15 6 -25z" />
<glyph unicode="N" horiz-adv-x="1339" d="M-174 -360q2 81 32.5 178.5t87 202t118 202t144.5 208t144.5 189t141 177t112.5 141.5q117 152 238 348q60 97 60 156q0 94 -151 94h-16q-151 -1 -301.5 -64t-279.5 -167q-50 -39 -98 -121q-27 -47 -27 -81q0 -25 16 -42q8 -7 8 -15.5t-6.5 -12t-15.5 0.5q-41 18 -51 52 q-4 14 -5 28q-1 21 9 43q16 37 37.5 67.5t46.5 55.5q135 123 305.5 195t357.5 90q32 3 60 3q148 0 174 -98q1 -13 1 -26q0 -23 -4 -48q-7 -39 -14.5 -64.5t-33.5 -70.5t-35 -59.5t-45.5 -66t-40.5 -58.5q-116 -174 -318 -435.5t-291 -395.5q-10 -15 -48 -71.5t-51 -77 t-46.5 -72.5t-47.5 -77.5t-39 -71t-35.5 -74.5t-23 -65.5t-16 -67t-0.5 -58.5q1 -1 1 -5q3 -14 15 -8q17 9 58 56l108 131q243 290 299 352q233 256 322 346q222 222 424 351q62 45 140 84q66 33 112 33q8 0 16 -1q72 -10 72 -86q0 -56 -39 -147q-41 -109 -141 -302 t-136 -280q-31 -70 -31 -129q0 -24 5 -47q5 -15 19 -22.5t28 4.5q22 17 21 -7q0 -8 -3 -22q-15 -15 -35 -15q-12 0 -26 6q-36 15 -43 48q-6 21 -6 47q0 28 7 64q13 66 50.5 152.5t74.5 161t92.5 181t84.5 166.5q5 11 11.5 26.5t14.5 39t12 45.5t4 42t-9.5 32t-28.5 12 q-126 0 -416 -232q-138 -110 -287 -260t-249 -265t-250 -296q-24 -27 -131 -168q-95 -124 -140 -146q-13 -7 -24 -7q-27 0 -43 40q-6 14 -6 54z" />
<glyph unicode="O" horiz-adv-x="1339" d="M-91 32v8q0 59 13 122q27 99 94 268q40 96 94 196t125 207t151 205t175 186t193.5 153t211 104t222.5 41h8q84 0 144 -42q64 -44 94.5 -119t42.5 -168q7 -53 7 -107q0 -40 -4 -82q-9 -96 -30.5 -184.5t-52.5 -153.5q-124 -261 -268 -455t-355 -358q-199 -143 -315 -183 q-81 -28 -152 -28q-74 0 -138 30q-125 59 -157 209q-47 0 -74.5 44.5t-28.5 106.5zM-39 39q0 -26 12 -71.5t33 -55.5q-4 12 -4 59v24q0 248 156 587q-54 -105 -90 -187q-7 -17 -28.5 -67t-30.5 -74.5t-23 -66t-19.5 -77t-5.5 -71.5zM55 8v-22q-1 -29 1 -63q2 -47 14.5 -86 t32 -74t54.5 -57t81 -28q22 -3 46 -3q89 1 188 43q126 54 242 151.5t229 224.5t201 261t151.5 259.5t88.5 219.5q13 54 22.5 102.5t17.5 116.5q8 64 9 118q-1 3 -1 7q0 56 -12.5 115t-38 100t-73.5 67.5t-114 28.5h-8q-107 0 -222 -49q-119 -51 -230.5 -142t-210.5 -200 t-191 -238q97 97 188 105q34 0 41 -27q6 -24 -13 -33l-7 -2q-99 -17 -157 -60.5t-112 -140.5q-180 -337 -211 -614q-5 -42 -6 -80z" />
<glyph unicode="P" horiz-adv-x="1218" d="M-214 524q12 98 71.5 199.5t143 194.5t179.5 173t179 136t143 84q71 33 151.5 61t179.5 49.5t186 21.5t171 -22q90 -24 150.5 -69t88.5 -101.5t35 -124.5q3 -24 3 -49q-1 -44 -9 -88q-12 -69 -38 -140t-58.5 -132t-69.5 -115q-105 -153 -222.5 -266.5t-223.5 -173.5 q-108 -60 -198 -86q-79 -23 -144 -24q-10 0 -19 1q-59 0 -118 15q-22 -45 -76 -174q-26 -62 -40.5 -100t-34 -101t-26.5 -109q-6 -41 -6 -90v-14q1 -58 15 -109q0 -26 -17 -25q-19 2 -35 29q-33 29 -39 85q-1 12 -1 24q0 48 17 108q21 76 43.5 138t56.5 143q10 22 14 33 q44 111 79 182q-80 41 -80 118q0 36 17 79q43 103 256 184l74 135q16 29 55.5 104t59 110.5t57 100t78.5 128.5q9 4 22.5 1t23.5 -11.5t5 -16.5q-28 -38 -54 -77.5t-54 -87.5t-45.5 -79t-50 -92t-46.5 -86l-57 -106q133 46 251 59q15 -2 27.5 -7t19 -12t0 -15.5t-27.5 -16.5 q-186 -19 -293 -54q-73 -134 -174 -348q33 -10 63 -10q8 0 15 -1q101 0 203 38q108 40 198 106t174.5 157t148 181.5t117.5 188.5q52 88 76 197q13 60 13 120q0 49 -9 99q-20 110 -94 172q-109 70 -273 70q-59 0 -124 -9q-250 -36 -485.5 -188t-389.5 -367q-2 -2 -28 -40.5 t-31 -46t-28 -44t-28 -49.5t-21.5 -47.5t-19 -52.5t-8.5 -50t-2.5 -55t10.5 -51.5t21 -55.5q6 -11 9.5 -17t11.5 -18.5t15 -18.5t15.5 -11.5t17.5 -3.5t17 10q12 11 22.5 0.5t0.5 -22.5q-22 -21 -47 -21q-5 0 -13 2q-34 6 -62.5 27.5t-43.5 46.5q-39 73 -39 152q1 19 3 38z M332 119q82 173 153 303q-82 -34 -145 -88q-66 -62 -65 -119q-1 -59 57 -96z" />
<glyph unicode="Q" horiz-adv-x="1306" d="M-128 16q-3 27 -3 55q0 50 8 99q28 232 164.5 485t316.5 447q76 79 174 134q91 50 180 50h13q35 44 94 103q54 54 114 93.5t141 63.5q51 15 102 15q28 0 55 -5q199 -35 219 -264q2 -26 2 -54q0 -212 -133 -516q-141 -322 -360 -589q-100 -121 -199 -207 q-94 -80 -176 -131q26 -3 77.5 -7t77.5 -7q7 -1 36 -2.5t52 -4t57 -7.5t59.5 -15t49.5 -24t36 -37.5t11 -52.5q-2 -36 -49 -87q-16 -21 -30 -21q-19 0 -35 42q6 8 38 32t35 40q7 30 -25.5 52.5t-83.5 33t-91 15.5t-62 5q-25 3 -65.5 6.5t-71 7t-55.5 7.5 q-204 -120 -354 -120q-66 0 -121 23q-63 26 -107.5 79t-64.5 119t-26 144zM-80 66v-6q0 -42 7 -90q7 -52 23.5 -94t48 -78.5t75.5 -55.5q55 -24 118 -24q115 0 257 79q-54 24 -92 70t-66 127q-26 82 -26 187q0 6 1 11q1 112 35 248.5t88 273.5t132.5 275t168.5 252 q-85 -4 -167.5 -50t-141.5 -112q-172 -180 -299 -433t-156 -490q-5 -46 -6 -90zM300 190v-23q0 -85 19 -165q41 -139 164 -184q94 58 192 145.5t186.5 191.5t171.5 221.5t148 238.5t114 239t71 226q18 92 18 169q0 15 -1 29q-4 88 -45 154t-117 96q-23 9 -53 9 q-34 0 -77 -12q-81 -23 -169 -87q-79 -56 -160 -156q6 -2 59 -20q15 -10 7 -33q-7 -18 -19 -10q-38 16 -78 22q-141 -190 -268 -465q-40 -81 -73.5 -173.5t-60 -203.5t-29.5 -209z" />
<glyph unicode="R" horiz-adv-x="989" d="M-76 360q2 50 16 106.5t44 120t54.5 110t49.5 85.5q180 274 409.5 452.5t546.5 305.5q52 22 114 38t132 26q41 5 80 6q28 0 56 -3q66 -7 122 -28t94 -70t48 -120q0 -58 -13.5 -109.5t-43 -100.5t-57.5 -84t-75 -87q-186 -195 -452.5 -375t-544.5 -301q-51 -67 -107 -160 l88 -102q54 -54 156 -164q136 -141 162 -165q182 -174 339 -212q51 -12 102 -12q30 0 59 4q35 6 63 14.5t42 14.5t47.5 23.5t53.5 27.5q21 11 34 -9.5t-3 -46.5q-103 -51 -231 -61h-27h-24.5h-20.5t-20.5 1t-18 2t-20.5 3t-19.5 4.5t-23 6t-25.5 7.5q-75 22 -153 70 t-159 122.5t-141.5 136.5t-149 158.5t-132.5 141.5q-164 -277 -187 -475q-10 -10 -27 3.5t-22 27.5q-8 24 -9 50t5.5 53t15 52t23.5 53.5t26.5 49t27.5 48t24 42.5q49 92 80 139l-68 64q-2 -2 -8 -2l2 2q-49 -7 -57 12q-6 16 23 29q4 1 7 2q158 51 215 75q90 135 310 429 q152 193 204.5 255t81.5 84q11 8 26 -3.5t9 -24.5q-34 -52 -276 -365q-186 -248 -242 -325q402 188 766 516q19 18 38.5 37t47.5 47.5t52 56t52 62.5t48 66.5t39.5 68t27 67.5t10.5 64.5t-10 58.5q-50 122 -228 122q-130 0 -329 -65q-281 -96 -522.5 -293t-413.5 -458 q-103 -158 -147 -361q-5 -20 -6.5 -39t0.5 -40.5t15.5 -33t37.5 -7.5q11 1 16.5 -5.5t2 -14.5t-14.5 -11q-59 0 -89 30q-28 28 -28 73v7zM313 260l11 -11t16 -15.5t14 -14.5l45 72q-53 -22 -86 -31z" />
<glyph unicode="S" horiz-adv-x="1101" d="M-333 -455q-3 19 -3 39q0 56 26 114q36 80 105 148q256 256 588 402q241 113 389 119q-10 161 -100 292q-20 28 -58.5 70t-73 79t-68 80t-53.5 88.5t-20 88.5q0 85 69 165t163 124q88 41 164 41h10q165 -4 244 -86q29 -20 12 -56q-13 -26 -33 -27q-13 -1 -20 13 q-36 62 -100 101q-50 30 -97 30q-13 0 -27 -2q-76 -3 -152.5 -40.5t-131 -108t-54.5 -152.5q0 -48 30 -105t65.5 -98t87.5 -97.5t73 -82.5q112 -140 134 -319q40 -3 77 -17q43 -16 67 -62q22 -41 21 -86v-12q-3 -52 -34 -82q-24 -10 -35.5 0.5t-3.5 30.5q32 33 32 76 q0 9 -1 17q-8 54 -54 81q-29 16 -67 19q1 -14 1 -28q0 -179 -108 -357q-57 -102 -170 -214.5t-255 -202.5t-287 -122q-49 -11 -96 -11q-90 0 -171 40q-72 37 -85 110zM-285 -425q0 -43 26 -81q27 -38 83 -59q41 -15 87 -15q30 0 63 6q82 16 164.5 57.5t163 102t145 122.5 t110.5 120q207 262 215 506q-70 -3 -133 -23q-546 -195 -815 -485q-27 -29 -52 -69t-41 -88q-16 -49 -16 -94z" />
<glyph unicode="T" horiz-adv-x="626" d="M-536 1362q12 62 49 123.5t88 99.5q26 21 41.5 4.5t-2.5 -41.5q-39 -28 -73.5 -72.5t-55.5 -92.5q-13 -31 -13 -59q0 -16 4 -32q12 -44 64 -65q75 -31 211 -31q98 0 227 16q136 16 269 41t332.5 71t264.5 60l76 17l160 209q24 27 49 23q23 -4 12 -31l-131 -185 q618 120 1093 121q78 0 152 -4q56 -3 96.5 -6t108 -11t118 -18.5t112 -30.5t107 -45t86 -63t63.5 -84q25 -51 26 -108q0 -6 -1 -12q-3 -63 -32.5 -113t-77 -90.5t-107.5 -52.5q-29 -6 -59 -6q-32 0 -65 7q-30 17 -24.5 41.5t32.5 24.5q13 -4 33.5 -12.5t31.5 -12.5t30.5 -7 t31.5 5q53 19 94 58t61 85q16 38 16 79q0 8 -1 18q-4 50 -36 90q-37 46 -81.5 81t-96 56.5t-98.5 35.5t-110 21t-108.5 10t-114.5 6q-19 1 -28 1q-86 4 -173 4q-221 0 -447 -24q-314 -33 -671 -101q-247 -358 -463.5 -734t-347.5 -685q-3 -7 -19 -45.5t-24 -60t-22.5 -61.5 t-19.5 -66.5t-8 -57.5t3.5 -53t22.5 -35q25 -36 12 -38q-4 0 -10 1q-22 15 -37 34.5t-24 39t-11.5 47t-2.5 47.5t6.5 52t10.5 49.5t15 50t15.5 44t15.5 41.5q271 684 794 1411q-202 -41 -620 -137q-130 -29 -230.5 -44.5t-228.5 -15.5q-2 0 -4 -1q-125 0 -226 28 q-78 21 -110 75q-23 39 -23 83q0 16 3 33z" />
<glyph unicode="U" horiz-adv-x="1136" d="M-227 -145q12 76 62.5 185.5t140 251.5t163.5 252.5t193.5 280.5t169.5 244q2 2 31 42.5t39 55t37 54t40 63t30.5 57t27 60.5t12.5 51q6 38 -15 57t-55 19t-105.5 -28.5t-148.5 -73.5t-134.5 -113t-57.5 -135q0 -40 22.5 -65.5t67.5 -25.5q12 -3 12 -14q0 -13 -14 -16 q-60 0 -98.5 33t-38.5 81q0 53 29 105t75.5 92.5t103 75.5t112 57.5t102 35.5t73.5 13q49 0 87 -26.5t38 -79.5q0 -49 -25.5 -113.5t-47.5 -101.5t-58 -94q-51 -77 -268 -392.5t-322 -492.5q-9 -15 -49 -79.5t-57 -96t-44 -86.5t-38.5 -100.5t-11.5 -88.5q0 -28 1 -43.5 t7 -39t17 -35.5t33.5 -21.5t55.5 -9.5q46 0 103.5 21t94 42t87.5 54q294 188 620 534q117 323 297 563q31 44 92 100t99 56q35 0 35 -49q0 -30 -13 -67t-28 -66t-44.5 -70t-46 -61.5t-49.5 -59.5t-38 -45q-136 -165 -236 -272q-25 -64 -53 -162q-11 -29 -24 -92.5 t-13 -114.5q0 -92 49 -92q4 0 20.5 11t20.5 11q18 -8 3 -30q-15 -23 -44 -23q-45 0 -73.5 35t-28.5 82q0 117 32 211l19 65q-269 -287 -578 -489q-69 -45 -158 -83t-165 -38q-84 0 -135 73q-41 59 -41 128q0 16 2 33zM977 416l80 92q63 71 103.5 119.5t96 120.5t84.5 129.5 t29 95.5q0 14 -8 14q-58 0 -154 -153q-140 -215 -231 -418z" />
<glyph unicode="V" horiz-adv-x="1007" d="M-215 907q0 241 244 504q42 47 110.5 104t151 114.5t172.5 95.5t158 38q65 0 115 -50t50 -116q0 -83 -27.5 -174t-76.5 -209q-18 -41 -76 -174t-82.5 -192.5t-66.5 -167t-69.5 -199.5t-49.5 -188q-66 -266 -66 -408q0 -73 9 -110t38 -37q48 0 82 43q110 120 322 408 t246 331q99 127 175.5 219.5t181.5 204t199.5 191t211 153t235.5 119.5q40 14 76 22t72.5 10t60 -13t27.5 -46q4 -15 4 -26q0 -28 -21 -36t-36 12q-13 17 -1 42q4 6 -13 7h-13q-50 0 -127 -25q-121 -39 -265.5 -139.5t-280.5 -229t-281 -291.5t-264.5 -314.5t-233.5 -311.5 q-4 -5 -34.5 -49t-49.5 -69t-54 -71t-62 -73.5t-59.5 -56.5t-60.5 -41t-51 -7q-33 0 -55 27t-30 70.5t-10.5 69t-2.5 50.5q0 144 26.5 291.5t78.5 297.5t100.5 268.5t121.5 285.5t113 268q55 168 55 275q0 66 -28.5 92t-77.5 26q-169 0 -453 -256q-51 -47 -100.5 -107 t-96.5 -134.5t-75.5 -161t-28.5 -166.5q0 -53 4 -92.5t24.5 -86.5t57.5 -69q9 -6 9 -14q0 -14 -15 -14q-6 0 -8 2q-65 41 -97 122t-32 162z" />
<glyph unicode="W" horiz-adv-x="1939" d="M23 -229q0 225 62.5 445.5t174.5 477.5q22 51 61 130.5t103 194t126.5 209t130 162.5t116.5 68q10 0 16.5 -1.5t10.5 -2.5t5.5 -6t2 -6.5t0 -10.5t-0.5 -12q0 -9 -8 -14q-55 -22 -119 -94.5t-105 -138t-75 -130.5q-286 -530 -393 -921q-55 -200 -55 -367q0 -26 5.5 -51 t18 -52.5t38.5 -44t63 -16.5q92 0 262 117q270 187 479 436q-4 54 -4 82q0 392 162 633q50 75 119 138q65 59 117 59h7q39 -3 56 -31q13 -21 13 -49q0 -8 -1 -17q-12 -149 -154 -405q-102 -192 -264 -391q13 -135 64.5 -215t144.5 -80q111 0 293 149q301 253 444 611 q2 6 0 29t3 38q7 18 12.5 52t14.5 55t28 30q18 19 43 4t18 -47q-33 -125 -91 -231t-155 -238q-51 -69 -103 -131t-119 -129.5t-130 -115.5t-133.5 -79.5t-132.5 -31.5q-95 0 -160 78t-86 199q-164 -189 -350 -340q-268 -220 -412 -220q-60 0 -108 58t-55 164zM989 203 q141 176 240 364q145 261 145 406q0 16 -10 25.5t-23 9.5q-24 0 -53 -29q-141 -120 -220 -313.5t-79 -407.5v-55z" />
<glyph unicode="X" horiz-adv-x="1873" d="M-158 -207q0 68 25.5 141t69.5 134q41 54 91 78q28 13 51 13q19 -1 37 -9q38 -20 40 -82q-7 -14 -18.5 -19.5t-22 1t-13.5 24.5q0 34 -24 37q-14 3 -28.5 -2t-27.5 -15.5t-22.5 -20t-18.5 -20.5t-10 -12q-48 -63 -70 -114t-22 -130q0 -40 8 -75t25.5 -65t48.5 -47.5 t72 -17.5q232 0 565 383q64 69 150 193q31 161 103 319.5t177 276.5q49 185 49 346q1 178 -67 266q-64 83 -174 82h-13q-115 -4 -281 -86q-164 -82 -274 -190q-83 -81 -83 -140q0 -18 8 -34q1 -1 9.5 -23t8.5 -24q0 -7 -4.5 -13t-9.5 -2q-62 29 -62 80q0 73 125 191 q103 100 275.5 183t287.5 91q17 1 34 1q40 0 74 -8q49 -12 82.5 -35t59 -58t40 -71.5t23.5 -80t12 -79t3 -73.5q0 -98 -23 -229q128 98 273 107q82 0 146.5 -75.5t64.5 -184.5q0 -19 -15 -19q-13 0 -16 16q0 100 -52.5 149.5t-135.5 49.5q-145 0 -281 -123 q-84 -360 -315 -674q-4 -62 -4 -84q0 -119 54 -186t161 -67q112 0 274 79q351 169 643 414l23 -22q-66 -55 -151.5 -114.5t-144.5 -97t-161 -100.5q-6 -4 -43.5 -26.5t-46.5 -27.5t-43.5 -25t-48 -26t-46 -21.5t-51 -21t-49.5 -16t-55 -14t-54 -7t-59 -3.5 q-123 0 -192.5 80.5t-69.5 191.5v13l-88 -97q-355 -355 -602 -366q-94 0 -147.5 68.5t-53.5 164.5zM844 319q80 143 141 308q-86 -131 -141 -308z" />
<glyph unicode="Y" horiz-adv-x="1492" d="M-205 788q0 97 92.5 206.5t220 191t261.5 134.5q127 50 208 50h9q139 -7 139 -125q0 -86 -75 -231q-119 -228 -378 -534q-24 -29 -43 -50q-313 -400 -313 -511q0 -31 25 -40q10 -4 22 -4q25 0 60 17q51 26 92 60.5t103.5 91t88.5 77.5q114 94 224.5 191t285 255.5 t219.5 198.5q13 12 79 75t122 114.5t121.5 97t99.5 45.5q12 0 32.5 -20t20.5 -36q0 -51 -43.5 -172t-76.5 -190q-65 -136 -166 -320q35 15 196 76q36 24 47 8q8 -15 -14 -34q-170 -62 -258 -99q-78 -133 -159.5 -254.5t-182.5 -247.5t-202 -225.5t-218 -180.5t-231 -122 q-16 -8 -51 -8q-57 0 -84 25.5t-27 60.5t15 78t38 74q359 495 1026 802q108 186 211 400q129 269 129 329q0 6 -3.5 14.5t-8.5 8.5h-4q-36 0 -110 -61q-80 -66 -173.5 -160t-101.5 -101q-27 -24 -302.5 -273.5t-426.5 -371.5q-1 -1 -25.5 -22t-37.5 -31.5t-42.5 -34.5 t-49.5 -38.5t-49 -36t-51.5 -35t-47 -26.5t-45 -19.5t-35.5 -6.5q-58 0 -79 32q-14 19 -14 46q0 18 6 39q14 54 40.5 109t66.5 119q85 133 272 366.5t271 362.5q152 217 158 323v6q0 83 -102 83h-16q-132 -8 -334 -119q-200 -110 -311 -236q-81 -91 -81 -161q0 -10 2 -19 q0 -16 15 -24.5t36 -8.5q2 0 3.5 -1t2.5 -2.5t1.5 -3.5t0.5 -5.5v-6v-7v-7.5q0 -16 -24 -16q-32 0 -49 22t-17 49zM70 -643q0 -28 17 -41.5t44 -13.5q49 0 127 38.5t109 63.5l79 64l93 86q303 292 553 712q-226 -102 -418.5 -234.5t-380.5 -326.5q-44 -46 -74 -80t-69 -84.5 t-59.5 -97.5t-20.5 -86z" />
<glyph unicode="Z" horiz-adv-x="1030" d="M-125 123q0 46 42 78.5t103.5 44t129.5 17.5q32 3 60 3q33 0 62 -4l29 -4q213 122 417 299.5t363 376.5q123 161 123 278q0 82 -60 133.5t-157 51.5q-90 0 -214.5 -56t-243 -145.5t-216 -215.5t-129.5 -251q-5 -20 4 -59t0 -56q-6 -12 -13 -18t-13.5 -7.5t-12 -0.5 t-9.5 2l-5 2q-13 0 -16 16q0 116 56 233t146.5 212t190.5 170t203 127q59 30 140.5 53.5t154.5 23.5q95 0 170 -54t86 -148q2 -15 2 -31q0 -44 -14 -92q-20 -64 -52 -120t-88 -121.5t-102.5 -112t-117 -106t-109 -89.5t-99.5 -76q-154 -118 -338 -225q206 -45 289 -146 q46 22 122 56.5t97 44.5q142 65 219 65q7 0 19 1t17.5 0.5t10.5 -5.5q7 -13 -2 -18t-30 0q-33 0 -67 -6.5t-73.5 -22t-63 -25.5t-71.5 -33.5t-61 -29.5l-101 -47q43 -62 43 -139q0 -108 -58.5 -212t-150 -178t-205.5 -119.5t-223 -45.5q-58 0 -105.5 26.5t-47.5 77.5 q0 45 28 97.5t58 89.5q170 198 598 399q-89 108 -293 139q-250 -140 -356 -140q-9 0 -17 1q-17 2 -33 15t-16 26zM-88 123q14 -8 35.5 -8t42.5 4.5t50.5 15t50.5 20t52 23.5q26 10 105 51q-42 4 -81 4q-47 1 -91 -5q-80 -10 -128 -38q-39 -22 -38 -52q0 -7 2 -15zM-63 -496 q0 -84 114 -84q92 0 196 45.5t190 118t143 172t57 197.5q0 63 -33 110q-316 -149 -489 -296q-33 -29 -69 -67.5t-72.5 -96.5t-36.5 -99z" />
<glyph unicode="[" horiz-adv-x="690" d="M16.5 -105q4.5 34 14.5 54q6 13 114 261t211.5 486t104.5 238l13 37q14 37 34.5 90.5t43 107.5t45 94.5t36.5 45.5q21 7 81.5 17.5t110 17.5t49.5 8l20 8q24 4 40 -6q19 -13 14 -36.5t-33 -33.5q-24 -8 -131 -24q-54 -10 -102 -13q-8 0 -20 -4q-24 -10 -35 -35 q-8 -18 -80.5 -191t-141.5 -338.5t-69 -166.5t-136.5 -326.5t-136.5 -326.5q0 -2 24.5 -12.5t62 -20.5t63.5 -6q13 1 40 4.5t47 5.5t41.5 3.5t35 0.5t16.5 -4q11 -7 8 -21.5t-30 -21.5q-30 -7 -80 -15t-120 -12t-101 11q-34 13 -46 51.5t-7.5 72.5z" />
<glyph unicode="\" horiz-adv-x="761" d="M164 1039q-10 84 8 85q21 0 35 -55q8 -20 14 -57l68 -303q38 -180 45 -209q6 -38 22 -94q-1 -1 58.5 -265.5t58.5 -265.5l31 -81q12 -39 6 -44q-6 -6 -20 6.5t-38 65t-46 139.5q-21 82 -78.5 336.5t-104 463t-47.5 206.5z" />
<glyph unicode="]" horiz-adv-x="585" d="M-125 -279q-9 15 2 33q1 4 10 17l70 26l102 37q27 7 47 35q5 5 17 25l387 825l238 530l-193 6q-14 -2 -39 -2q-46 0 -57 11q-10 8 -10.5 12.5t3 5.5t18.5 5q7 2 11 3q27 5 147.5 17t149.5 12q45 -3 33 -53q-3 -19 -16 -49l-181 -420l-219 -451q-49 -98 -108 -219.5 t-95.5 -196.5t-44.5 -90q-37 -65 -149 -96l-46 -16q-70 -21 -77 -7z" />
<glyph unicode="^" horiz-adv-x="649" d="M56 1193q3 15 32 44q35 35 108.5 97t88.5 71q49 24 90 -12q61 -53 78 -66l53 -43l26 -24q26 -26 19 -33q-9 -9 -55.5 6t-71.5 47q-32 37 -65 61t-52 23q-12 0 -33.5 -15t-38.5 -29.5t-18 -14.5q-2 0 -31 -26.5t-62.5 -56t-43.5 -34.5q-25 -10 -24 5z" />
<glyph unicode="_" horiz-adv-x="741" d="M12 145q0 4 3 10t11.5 15.5t24 16t41.5 10.5t64 -2q69 -7 153.5 -6t156.5 5l71 5l8 1q8 1 20 2t27.5 2t32 2t33 0t30 -2.5t23 -5.5t12.5 -10q8 -17 41 -26q7 -2 -3 -6q-2 -1 -5 -2q-15 -4 -97.5 -7t-157.5 -3l-75 -1q-18 0 -123 -10l-123 -8l-84 6q-13 2 -38 4.5 t-35.5 4.5t-10.5 5z" />
<glyph unicode="`" horiz-adv-x="374" d="M93 560q0 6 9 15q23 16 70 -7t57 -46q20 -36 19 -62q0 -10 -6 -9q-11 0 -44 21.5t-44 37.5q-4 6 -14.5 13t-20 12t-18 12t-8.5 13z" />
<glyph unicode="a" horiz-adv-x="663" d="M-4 186q0 30 27 58q57 65 103 65q31 0 56 -30q0 -3 -1.5 -4.5t-3.5 -2.5t-3 -2q-3 -1 -5.5 0t-5.5 3t-5 3q-6 1 -11 1q-30 0 -57 -27q-24 -17 -42 -47q-14 -24 2 -23q7 1 20 6l53 35q62 46 84 68q7 3 20 2t25.5 -5.5t11.5 -9.5q-25 -54 -26 -89q0 -65 88 -65q10 0 22 1 q162 18 365 151q17 2 20 -2t-8 -14q-19 -14 -41 -25.5t-50 -25t-44 -21.5q-24 -11 -45 -20t-59 -24.5t-69 -23.5t-69 -16q-25 -5 -45 -4q-11 0 -21 1q-28 4 -50 15q-24 12 -34 40q-7 19 -7 44q0 12 2 25v13q-12 -8 -51.5 -34.5t-61.5 -39.5q-28 -15 -48 -15q-7 -1 -13 1 q-23 8 -23 38z" />
<glyph unicode="b" horiz-adv-x="739" d="M-63 45q-6 -31 6.5 -41t44.5 6q-1 3 -1 8q0 17 13 58q73 100 166 149q22 11 49.5 16.5t53 1.5t35 -24t-4.5 -61l-20 -41l-72 -17q-99 -30 -134 -54q-44 -29 -44 -66q3 -8 8 -13q30 -28 69 -28q14 -1 30 3q59 14 119 63t89 106q30 4 89 11.5t93 13t83 16.5t93.5 29.5 t88.5 45.5q8 18 4.5 23t-23.5 -2q-29 -18 -57 -33t-63.5 -26t-55 -18t-64.5 -15t-56 -10t-65 -9t-59 -8l4 12q3 14 3 27q1 50 -43 80q-34 23 -72 23q-23 0 -49 -9q-57 -19 -111 -61l-45 -35l47 96q205 127 388 285.5t296 318.5q68 99 108.5 180.5t59.5 174.5q3 17 3 32 q0 33 -16 57q-24 34 -65 36h-9q-37 0 -79 -17q-87 -42 -201 -170t-199 -257t-134 -228q-183 -354 -301 -627v-2zM59 -14q-5 11 27.5 34.5t71 42t53.5 21.5l55 12q-48 -63 -106 -96q-6 -2 -23.5 -11.5t-29.5 -14.5t-26 -3.5t-22 15.5zM104 299l125 240q103 205 189 331 q111 164 229 296q139 155 204 155q26 0 40 -25q12 -21 13 -50.5t-7 -62t-19.5 -65t-28 -65.5t-30 -56.5t-26.5 -44.5q-114 -181 -296 -350.5t-393 -302.5z" />
<glyph unicode="c" horiz-adv-x="628" d="M24 125q-7 24 -7 50q0 56 34 119q46 87 121 118q29 12 58 12l34 -4q39 -10 68 -47q7 -8 3.5 -16t-11.5 -9t-15 6q-27 24 -47 29q-8 3 -17 3q-40 0 -88 -59q-58 -71 -70 -150q-2 -14 -2 -27q0 -67 58 -83q16 -4 35 -4q7 0 14 -1q68 0 138 26q78 28 177 82t146 74 q11 3 21 9l3 1q0 -1 -3 -6l-4 -8q-87 -50 -131.5 -74t-126.5 -64.5t-140 -56.5q-42 -12 -75 -12q-12 0 -23 2q-122 0 -150 90z" />
<glyph unicode="d" horiz-adv-x="1013" d="M37 281q35 50 74 77.5t102 28.5q23 5 55.5 -10.5t32.5 -38.5q0 -11 -37 12l-22 12q-6 1 -13 1q-29 0 -59 -24q-38 -30 -64 -67q-20 -28 -20 -44q0 -21 35 -21q69 0 172 61q76 235 238 465.5t360 399.5q21 19 55.5 44.5t86 55t98.5 46.5q36 13 69 13q12 0 22 -2 q44 -6 64 -41q6 -10 6 -24q0 -27 -20 -72q-45 -95 -138.5 -206.5t-214 -220t-224 -192t-216.5 -167.5q-75 -56 -123 -86q-27 -80 -27 -156q0 -26 3 -51q8 -63 45 -95.5t87 -34.5q8 0 15 -1q43 -1 93 11q58 14 107 35.5t87 45.5q77 51 189 128t128 93q10 0 -2 -27 q-18 -14 -66.5 -51.5t-73 -56t-65 -47.5t-77 -51t-74.5 -41q-53 -27 -113 -44q-60 -16 -122 -18q-5 0 -9 -1q-56 0 -102 17q-49 18 -79 68q-25 43 -25 107q0 11 1 22q5 80 9 103q-106 -60 -164 -62q-53 0 -83 32q-15 17 -15 36t14 39zM373 322q74 56 88 69q23 18 99.5 77 t107.5 83.5t97.5 78.5t108 92t97 92t104.5 108q26 29 51.5 61.5t62.5 83t56 96.5q14 34 14 58q0 9 -2 16q-2 8 -7 14t-13 8t-14.5 3t-17 -1t-16 -3t-16 -4t-12.5 -3q-29 -10 -59 -26.5t-50.5 -29t-52.5 -39t-44.5 -37.5t-48.5 -44t-44 -41q-263 -238 -456 -633 q-18 -32 -33 -79zM1073 256q12 5 13 4l-3 -4h-10z" />
<glyph unicode="e" horiz-adv-x="645" d="M5 167q-4 16 -4 33q0 53 39 112q47 72 107 86q30 7 56 -5q16 -15 19 -31t-7 -31.5t-26 -30.5t-39 -29t-44 -24.5t-43 -19.5q-7 -20 -7 -36q0 -42 48 -60q41 -18 97 -17q79 0 188 34q188 58 301 131q3 1 8 3q11 4 13 2.5t-2 -18.5q-129 -76 -246 -119q-64 -22 -101 -33 q-36 -11 -96 -22q-55 -10 -105 -10h-9q-126 0 -147 85zM72 250q122 55 122 98q0 11 -8 21q-6 7 -26.5 -6.5t-44.5 -40.5q-31 -40 -43 -72z" />
<glyph unicode="f" horiz-adv-x="563" d="M-282 -648q-1 6 -1 12q0 58 13 124q14 73 33.5 146.5t48 152.5t51.5 135.5t47 112.5l57 123q-6 42 -4 51q11 25 45 29q156 293 434 673q22 35 57.5 74.5t61.5 46.5q8 3 19 -8q20 -5 22 -20.5t-11 -38.5t-29 -46t-32 -49t-20 -41q-7 -13 -29 14q-11 14 -16 27 q-89 -119 -178 -256q-118 -181 -217 -378q32 -6 80.5 -22t52.5 -17q54 -15 111 -15q130 0 276 76q27 8 30 5t-16 -23q-161 -78 -302 -78q-32 0 -62 4q-15 2 -81 21t-102 22l-45 -96q28 -77 35 -113q38 -150 38 -302q0 -21 -1 -42q-5 -104 -38 -211t-91 -176 q-23 -23 -39.5 -38t-45 -33t-49.5 -20t-44 13.5t-39 54.5q-19 42 -20 106zM-213 -780q10 -16 27 -17t35.5 9.5t32.5 21.5t26 23q106 106 141 335q10 58 10 122q0 129 -41 280l-24 72q-93 -215 -158 -414q-14 -43 -27.5 -95.5t-26.5 -120.5q-14 -67 -14 -124q0 -62 19 -92z " />
<glyph unicode="g" horiz-adv-x="712" d="M-1050 -996q5 79 35.5 148t84.5 133q78 90 188.5 159.5t252.5 135.5q108 51 315 130t299 120q110 269 160 469q-14 -9 -53.5 -36t-61.5 -40q-42 -20 -68 -30.5t-50.5 -15.5t-37 2.5t-16.5 27.5q-2 8 -2 16q0 25 20 47q27 36 68 61.5t87 30.5q6 1 11 1q40 0 72 -31 q10 -12 2 -17t-18 7q-20 20 -47 20q-28 0 -64 -23q-49 -32 -66 -72q-11 -23 2 -32q10 -6 35 3t86 40q28 15 67.5 46t59.5 44q11 5 21.5 0.5t9.5 -14.5q-3 -17 -12 -78.5t-18 -104.5t-21 -79q-36 -105 -72 -197q130 59 160 76q245 136 371 297q17 8 18.5 6.5t1.5 -21.5 q-92 -118 -231.5 -210t-333.5 -183q-77 -185 -203 -418q-53 -97 -122 -196.5t-164.5 -202.5t-194 -175.5t-212.5 -105.5q-59 -16 -116 -16q-52 0 -102 14q-28 7 -66 44t-49 65q-27 65 -27 132q0 11 1 23zM-1023 -1022v-6q0 -52 14 -98q15 -50 58.5 -79.5t112.5 -29.5 q107 0 201.5 51.5t190.5 139.5q234 209 387 495q90 164 170 348q-89 -38 -291 -116t-295 -121q-72 -32 -130 -62t-128 -75t-121 -91.5t-93 -109t-59 -129.5q-16 -61 -17 -117z" />
<glyph unicode="h" horiz-adv-x="1036" d="M-2 31q-14 12 -14 45q0 38 18 102q33 122 90 262q247 538 588 750q50 34 95 38q5 0 9 1q38 0 60 -31q14 -20 15 -53q0 -22 -7 -49q-16 -86 -78.5 -190t-147 -199.5t-186.5 -190.5t-192.5 -167.5t-171.5 -127.5q-29 -102 -31 -164q25 15 106 81t155 113q69 44 111 44h5 q41 -5 62.5 -34t39 -71.5t37.5 -62.5q44 -44 92 -61q31 -11 63 -11q18 -1 36 3q52 10 100.5 33t108.5 63q52 34 102 84q12 5 17 0.5t5 -23.5q-28 -28 -106 -78q-58 -36 -103 -58q-45 -21 -103 -39q-39 -12 -76 -12q-19 0 -37 2q-54 8 -103 44q-31 23 -52 57.5t-29 61.5 t-22 48t-34 23q-44 -2 -101.5 -35.5t-104.5 -73.5t-103 -79.5t-95 -50.5q-9 -3 -18 6zM88 264q198 121 416 347.5t301 414.5q9 22 17 52q7 26 8 58v12q-2 39 -27 46q-6 2 -12 2q-28 0 -73 -30q-56 -37 -98 -77t-69 -71q-128 -136 -263.5 -348.5t-199.5 -405.5z" />
<glyph unicode="i" horiz-adv-x="468" d="M2 117v7q0 75 65 172q32 48 64 75q20 14 47 4q20 -8 10 -23q-44 -38 -94 -119q-50 -82 -50 -127q0 -26 17 -39q14 -11 42 -12q14 0 32 4q100 18 209 84q82 51 182 129q3 1 6 4q5 3 5.5 2t-0.5 -6l-5 -20q-94 -75 -178 -127q-125 -82 -219 -92q-15 -2 -29 -2 q-100 0 -104 86zM212.5 521.5q0.5 17.5 6.5 31.5q8 11 24 6t29 -18q9 -11 8 -24.5t-8 -18.5t-25.5 -7t-27.5 5q-7 8 -6.5 25.5z" />
<glyph unicode="j" horiz-adv-x="423" d="M-980 -818v13q0 42 19 90q14 32 34 62t39 54t49 49t50.5 42t58.5 39t58 33.5t63.5 31.5t61 28t64.5 28t61 26q155 68 248 111q108 202 237 528q8 12 30 0.5t18 -26.5q-98 -288 -181 -451q187 97 322 196.5t221 227.5q12 12 18.5 8t2.5 -26q-163 -241 -586 -451 q-179 -347 -434 -569q-160 -138 -312 -146h-11q-55 0 -89 26q-38 29 -42 76zM-954 -782q-1 -9 -1 -17q0 -40 29 -63q29 -24 72 -24q8 0 16 1q48 2 95 20.5t91.5 53.5t75.5 64t72 73q172 180 305 418q-86 -40 -262 -111q-60 -22 -116.5 -48t-123 -66t-117 -83.5t-89 -100.5 t-47.5 -117zM61 510q-7 14 3.5 41.5t21.5 38.5q7 10 25.5 11.5t23.5 -3.5q4 -4 -5 -38t-15 -40t-14.5 -11.5t-21 -8t-18.5 9.5z" />
<glyph unicode="k" horiz-adv-x="864" d="M-86 -80q0 16 4.5 35.5t9.5 32.5t14.5 34.5t12.5 30.5q29 66 58 137t50.5 120.5t61.5 131.5q255 524 534 795q20 20 42.5 39.5t56 43t63 36t64 19t59.5 -8.5q38 -20 42 -68q1 -8 1 -16q-1 -42 -19 -90q-22 -58 -43.5 -100t-41.5 -72q-119 -192 -331.5 -391.5 t-438.5 -349.5l-27 -58q-31 -69 -63 -112q1 1 2.5 1.5t3 2t2.5 4.5q150 177 305 258q88 49 143 50q16 0 29 -5q30 -12 40.5 -31.5t2.5 -42t-26 -45t-44 -43.5q-104 -84 -282 -104l51 -41q117 -96 259 -97h3q140 0 256 103q90 76 125 129q20 14 26 9t-1 -28q-14 -21 -37 -44 t-55 -50.5t-44 -38.5q-98 -84 -210 -108q-40 -8 -80 -8q-71 0 -140 27q-108 42 -192 145h-6q0 2 2 4q-4 4 -4 6q-3 6 -2 6q6 0 10 2q4 0 6 2l8 10l4 -8q11 3 64.5 14.5t111.5 30.5q25 7 71 36t78 68q18 22 18 39q0 13 -11 23q-10 9 -27 9q-51 0 -164 -79q-94 -55 -207 -184 t-137 -219q-1 -3 -0.5 -5t0 -4t-3.5 -5q-14 -13 -34.5 -4.5t-22.5 26.5zM137 334q213 148 412 339.5t317 375.5q12 19 25.5 43.5t32 65t28.5 74.5q7 24 6 46q0 9 -1 18q-4 30 -27 41q-6 3 -13 3q-27 0 -75 -32q-62 -40 -113.5 -87.5t-81.5 -81.5q-143 -166 -274.5 -376 t-235.5 -429z" />
<glyph unicode="l" horiz-adv-x="557" d="M1 152q-4 21 -4 43q0 42 13 90q82 331 377 673q158 185 297 261q35 19 57 19q6 0 12 -2q25 -6 34.5 -31.5t6 -61t-17.5 -70.5q-8 -17 -21.5 -47t-23 -48.5t-24.5 -43.5q-188 -314 -650 -711h-2v-16q-2 -17 -2 -32q1 -42 13 -70q16 -39 49 -51q29 -11 65 -10h9q41 2 87 18 t85.5 35.5t72.5 41.5q10 7 33.5 23t37 25t33 23t35.5 27.5t31 26.5q24 5 25 3.5t-11 -21.5q-165 -145 -352 -215q-57 -20 -106 -20q-14 -1 -26 1q-58 8 -90 45t-43 95zM61 254q362 318 568 606q74 104 123 227q20 48 20 75q0 22 -12 30q-7 5 -16 4q-28 0 -80 -43 q-91 -74 -232 -238q-257 -298 -354 -598q-2 -7 -17 -63z" />
<glyph unicode="m" horiz-adv-x="1368" d="M-95.5 -36q1.5 22 10.5 52t16.5 47.5t19 43t12.5 26.5q147 302 406 545q9 8 35.5 32.5t41.5 37.5t39.5 26.5t46.5 16.5q7 2 20 -1.5t17 -9.5q3 -7 3 -16q0 -28 -30 -74q-40 -62 -81 -104q-123 -137 -379 -355q-82 -135 -117 -237q-2 -5 -4.5 -14t-4 -14t-4 -12.5t-3 -12 t-1 -9.5t1.5 -8.5t5 -5.5q2 -2 6 -2q33 0 184 150l177 178q73 84 142 130q42 28 69 27q43 0 43 -75v-6q0 -7 -1 -15q-9 -94 -9 -131q0 -12 1 -18q6 -40 46 -23q26 10 73 45q1 1 22.5 16.5t27 19.5t26.5 18t31 19l29 14.5t31.5 13t28.5 6.5t29 2q27 -2 38 -21.5t11.5 -45.5 t3.5 -52.5t22.5 -46t60.5 -21.5q25 -1 59.5 8t62.5 19.5t73 34t63.5 34t63.5 37t46 27.5q17 4 20 1t-8 -17q-14 -8 -60.5 -37.5t-77.5 -48t-81 -42.5t-88 -34q-32 -8 -69 -8h-11q-44 2 -77 22q-16 10 -24 32t-9 45t-2 44t-7.5 32t-21.5 7q-26 -7 -61 -30.5t-65 -47 t-68 -46.5t-69 -29q-10 -2 -21 -2q-22 0 -48 8q-11 5 -19 15t-10.5 25.5t-4 29.5t0.5 34.5t3 31.5t4.5 30.5t3.5 21.5q5 26 5 41q0 21 -10 21h-2t-3 -1q-33 -15 -99 -72t-118 -109t-129.5 -131.5t-88.5 -90.5q-1 -1 -12.5 -11t-21.5 -17.5t-25.5 -18.5t-29 -18t-28 -12.5 t-27.5 -4t-22 9.5q-18 14 -24.5 36.5t-5 44.5zM117 289q41 36 205 194q144 132 213 246q15 18 8 25q-4 4 -8 0q-5 5 -25.5 -8t-34.5 -27q-213 -213 -358 -430z" />
<glyph unicode="n" horiz-adv-x="931" d="M-31 87q1 54 33 120q2 5 4 8q81 125 186.5 247.5t196.5 166.5q9 3 22.5 -6.5t18 -21t-1.5 -17.5q-72 -33 -182 -152t-168 -207q-13 -13 -45 -83q-22 -46 -22 -61q0 -7 5 -8q2 0 4 1q2 0 5 2q77 40 108 63q48 38 107.5 80t142 89.5t117.5 47.5q29 0 46.5 -21t23 -47.5 t16 -58t26.5 -47.5q31 -34 79 -40q11 -1 21 -2q38 0 80 16q53 20 96.5 43.5t84.5 52.5q14 2 14.5 1t-0.5 -11q-165 -123 -280 -123q-66 0 -115 41q-24 18 -37 48.5t-16.5 54.5t-12.5 41t-28 15q-35 -6 -128 -71.5t-194.5 -132t-157.5 -76.5q-7 -1 -12 -1q-37 0 -37 49z" />
<glyph unicode="o" horiz-adv-x="411" d="M-19 161q0 48 45 97q46 51 99 51q24 0 39 -24.5t10 -48.5q28 -28 94 -27q18 -1 39 1q98 10 152 46q19 4 21 2t-9 -16q-43 -18 -77 -28t-74 -18q-26 -5 -51 -5q-14 0 -27 1q-38 4 -74 19q-15 -43 -48 -77q-32 -33 -71 -32h-2q-66 3 -66 59zM38 184q-9 -22 -9 -36 q0 -22 22 -25h8q31 1 57 27q28 30 38 65q-22 9 -39 24t-17 31q-38 -33 -60 -86zM130 259.5q10 -12.5 30 -19.5q5 34 -29 43q-11 -11 -1 -23.5z" />
<glyph unicode="p" horiz-adv-x="851" d="M-407 -560q0 9 0.5 16t3 17t4 15.5t6 17t6 15.5t6.5 16t6 14q55 124 136.5 241.5t197.5 254.5q23 55 37 103l86 260q2 8 4.5 27.5t6 35.5t9.5 23q16 9 36 -8.5t20 -30.5q1 -10 1 -19q0 -32 -9 -56q-10 -31 -36 -66.5t-34 -51.5q-24 -46 -51 -135l30 35q88 100 205 192 q45 35 112.5 70.5t123.5 42.5q10 1 20 1q42 0 67 -25q20 -20 20 -55q0 -20 -7 -46q-19 -79 -104 -159.5t-195 -139.5q30 -2 54 -2q36 0 57 4q148 24 265 70t228 129l19 -15q-293 -215 -595 -215h-22q-23 0 -55 7l-51 -19q-31 -9 -49.5 -13.5t-45.5 -4t-47 11.5l-4 4 q0 2 -2 4t-2 8q-2 2 2 15q11 14 26.5 22t28 12t34 3t31.5 -2t36 -5.5t33 -5.5q1 0 37 21q46 28 81 59q45 37 74.5 64t63 70t49.5 85q1 3 5.5 14t7 19.5t4.5 19t-0.5 18.5t-10.5 13q-13 7 -32 7q-75 0 -238 -111q-119 -85 -277 -264q-117 -300 -191 -437q-96 -179 -180 -233 q-12 -4 -14 -2q-10 0 -12 2q-8 2 -10 10q-3 8 -4.5 15.5t-1.5 16.5zM-377 -571q16 12 32.5 31.5t24.5 33t24 42.5t20 36q131 243 200 395q-116 -147 -164 -221q-35 -46 -92 -162q-47 -98 -47 -141q0 -8 2 -14zM88 16q27 0 55 4q8 3 25.5 7.5t26.5 7.5q-16 2 -50 2 q-6 0 -16 -4t-22 -9.5t-19 -7.5z" />
<glyph unicode="q" horiz-adv-x="856" d="M-435 -1274q1 50 7 94q37 248 158.5 525t280 517t351.5 464q-9 -6 -31.5 -24t-35.5 -26q-12 -7 -48.5 -30.5t-55 -35t-49.5 -27.5t-58 -25q-31 -11 -53 -11q-17 0 -28 6q-26 15 -25.5 50t24.5 67q24 33 69.5 70t100.5 66q52 28 105 28h3q55 -1 87 -43q7 -8 3.5 -15.5 t-11.5 -8.5t-15 6q-22 20 -53 21t-59 -11t-60.5 -35t-51.5 -40t-38 -36q-56 -56 -56 -82q0 -13 14 -13q21 0 73 26l106 61q16 12 58.5 39t58.5 39q51 37 87 81.5t60 65.5q12 8 27 -6t8 -26q-6 -6 -8 -13h2q-3 -1 -4.5 -2.5t-2 -3t-1.5 -2.5q-322 -430 -461 -649 q-142 -225 -232 -422t-153 -440q-12 -45 -20.5 -93t-14.5 -109q-3 -35 -3 -66q0 -24 2 -45q4 -51 18.5 -102.5t46 -79t79.5 -42.5q20 -6 44 -6q34 0 77 12q114 27 199 101q109 92 197 206t146 248t77 269q7 49 7 98q0 89 -22 180q-34 142 -124 266q-64 86 -98 117 q-20 17 -40 31q-8 6 -5.5 16.5t12.5 10.5q7 4 30 11t25 7q200 80 348 151t283 164q29 5 33 1t-15 -21q-77 -54 -175 -107t-162.5 -82.5t-186.5 -83.5q-79 -40 -142 -61q67 -51 134 -139q142 -208 154 -424q1 -21 1 -42q0 -196 -102 -401q-127 -264 -357 -440 q-157 -110 -286 -110q-55 0 -105 20q-42 15 -72 53t-46 85.5t-23 103.5q-7 48 -7 93v11z" />
<glyph unicode="r" horiz-adv-x="571" d="M-70 16q0 64 84.5 210.5t153.5 236.5q64 87 108 87q10 0 19 -5q8 -8 8 -23q0 -23 -14.5 -50.5t-42.5 -57.5t-50.5 -51.5t-57 -52t-42.5 -38.5q-31 -53 -53 -104q-3 -7 -16.5 -29.5t-16.5 -36.5l-12 -43l29 32q55 63 73 81q149 141 267 209q31 16 54 24t46 8t39 -15.5 t24 -47.5q-5 -14 -8 -14t-11 10q-3 4 -5 6q-6 15 -16 23t-23 8t-25.5 -3t-28 -11t-26.5 -14.5t-25.5 -16t-19.5 -12.5q-34 -22 -68.5 -51.5t-55.5 -50.5t-60 -61t-56 -57q-2 -2 -35 -40.5t-60 -61t-48 -22.5q-10 3 -12 8l-6 6v2q-8 4 -11 18zM127 326q143 143 143 188 q-2 1 -3 1q-15 0 -53 -51q-42 -57 -87 -138z" />
<glyph unicode="s" horiz-adv-x="491" d="M-224 -200q-3 9 -3 19q0 25 22 56q20 27 48.5 51t48 38t64.5 35.5t59 27.5t70 29q16 7 24 10q-4 29 -19.5 65.5t-30.5 68.5q-15 30 -27 64q-9 26 -8 53v17q4 36 25 67q24 36 56 62.5t67 35.5q9 2 17 2q25 0 44 -20q8 -9 8 -23q-1 -32 -43 -88q-62 -82 -114 -112 q7 -27 31.5 -75t31.5 -70q1 -6 2 -12.5t2 -11t1 -7.5l12 6q9 4 111.5 44.5t167.5 72.5t92 59q20 2 23.5 -0.5t-1.5 -19.5q-10 -9 -61 -37q-59 -31 -172 -74t-148 -59l-22 -11q0 -39 -12 -73.5t-36.5 -65t-44.5 -50t-53 -46.5q-82 -65 -158 -65q-11 0 -22 1q-40 4 -52 36z M-188 -193q15 -11 38 -11q27 0 66 16q60 28 112 78t74 108q9 21 9 49q-59 -24 -89 -37t-77 -40.5t-84 -61.5q-19 -15 -40.5 -52.5t-8.5 -48.5zM78 283q76 57 117 120q26 36 20.5 54.5t-45.5 1.5q-33 -13 -57.5 -50.5t-32.5 -78.5q-5 -18 -2 -47z" />
<glyph unicode="t" horiz-adv-x="659" d="M-270 868q0 10 5 13.5t12.5 1.5t15 -5t13.5 -6.5t7 -3.5q44 -13 96 -15q15 -1 29 -1q35 0 63 4q40 5 111.5 15t120.5 14l143 12q120 175 236 295.5t192 144.5q8 3 19 -8q5 -10 5 -22q0 -27 -24 -68q-40 -68 -96 -138t-162 -190q125 8 230 8q90 0 165 -6q18 -2 66 -5 t75.5 -6t66 -10t67.5 -18q26 -22 12 -46t-49 -17q-16 8 -30.5 14t-31.5 10.5t-27 7t-32.5 8t-32.5 7.5q-140 33 -319 33q-87 0 -184 -8l-89 -103l7 8q-7 -7 -39 -45t-72.5 -86t-60.5 -71q-17 -32 -95 -191q-54 -107 -94 -250q-6 -36 -6 -64q0 -44 14 -72q23 -45 77 -47 q3 0 6 -1q52 0 128 25q116 38 217 104t209 162q17 12 22 10t1 -24q-158 -139 -256 -197q-43 -25 -89 -47t-115 -46q-59 -21 -111 -21q-8 0 -16 1q-58 4 -87 43q-33 43 -35 119q0 7 -1 15q1 71 23 151q24 90 69 194.5t102.5 208.5t124.5 207l-115 -12q-35 -3 -107 -11.5 t-129 -13t-108 -4.5q-77 0 -106 14q-13 7 -23 17q-5 2 -8 12zM276 664l183 215l-58 -5q-52 -75 -125 -210zM422 903l61 6q115 135 191 234q51 63 86 135q17 33 3 25q-10 -5 -32 -29q-46 -39 -96.5 -96t-84 -100t-87.5 -115z" />
<glyph unicode="u" horiz-adv-x="856" d="M-8 118q4 48 23.5 94.5t41.5 68.5q8 11 13.5 17.5t16.5 16.5t21 14t24 3t28 -10q18 -14 12 -33q-2 -9 -10 -8q-2 1 -5 1q-21 0 -59 -46q-44 -52 -55 -95q0 -1 -3 -15t-5.5 -28t-1.5 -27.5t10 -15.5q4 -1 10 -1q35 0 108 54q85 64 113 99q18 8 29 -12t17 -49.5t24.5 -58.5 t48.5 -36q34 -4 61 -5.5t62 8t62 18.5t61 27t58.5 32.5t55.5 35t51.5 35t45.5 33t39 27.5q21 5 24 3t-8 -19q-14 -10 -54 -38t-55.5 -38.5t-49 -32.5t-56 -33.5t-54 -26.5t-63.5 -26q-35 -12 -73 -20q-32 -7 -70 -7h-14q-46 2 -74 19q-27 14 -41.5 40t-21.5 48.5t-13 26.5 h-4q-147 -131 -216 -131q-13 0 -23 4q-11 4 -13 8q-19 26 -19 64q0 8 1 15z" />
<glyph unicode="v" horiz-adv-x="952" d="M-14 114q10 64 34.5 133t54.5 124.5t56 89.5q11 5 28 0.5t31 -15t9 -18.5q-32 -35 -70 -108q-37 -72 -65 -148q-27 -75 -27 -138q0 -65 41 -77q18 -6 40 -7q31 0 70 14q65 22 129.5 66t112 83.5t82.5 74.5l47 52l-10 18q-13 20 -13 53v9q2 39 27 61q16 16 34 16 q13 0 26 -8q25 -17 25.5 -45t-13 -53t-35.5 -49q26 -42 72 -64q47 -27 101 -27q7 1 13 1q62 4 114 24.5t99 56.5q3 0 6.5 1.5t5.5 2t4 0.5t2.5 -1.5t0 -5t-1.5 -9.5q-68 -57 -148 -81q-47 -14 -94 -14q-32 0 -65 7q-79 17 -131 82q-2 -1 -9 -8q-18 -20 -37 -39.5t-45.5 -45 t-52.5 -48t-58 -47t-61.5 -42.5t-63 -34.5t-63.5 -23t-62 -9t-58 9.5q-52 18 -72 70q-13 34 -13 74q0 20 3 42zM573 311q3 -21 13 -41q26 32 33 57t-11 38q-12 3 -19 1t-10.5 -15t-4.5 -21.5t-1 -18.5z" />
<glyph unicode="w" horiz-adv-x="1015" d="M-53 104q25 83 78 170t118 160q1 1 20 20.5t26 26t25.5 22t30 22t28.5 12.5t32 6q20 -6 38 -32q11 -18 3 -22q-57 -3 -138.5 -87t-141.5 -184t-72 -157q-6 -26 -6 -46q0 -41 23 -60q16 -13 40 -13q28 0 66 17q123 52 239 160q77 71 183 209q0 1 1 2t1 2l2 2q11 11 27 2.5 t10 -21.5q-28 -54 -35 -90q-6 -27 -6 -48q1 -53 35 -77q26 -18 60 -19q32 0 71 15q78 26 138.5 86t71.5 135q12 17 17 15.5t10 -19.5q-8 -59 -49 -111.5t-94.5 -85.5t-114.5 -50q-33 -9 -63 -9q-51 -1 -90 27q-52 36 -52 101q0 12 2 26q-164 -197 -348 -279q-51 -22 -90 -22 q-46 0 -75 30q-34 35 -34 90q0 33 13 74z" />
<glyph unicode="x" horiz-adv-x="630" d="M-111 -57q46 94 213 243q-91 71 -91 139q0 21 9 42q11 19 39 15q23 -4 20 -21q0 -3 -1 -5q-1 -8 -1 -16q0 -26 14 -55q19 -39 52 -66q133 109 197 164q14 6 21 -4.5t-3 -20.5q-23 -23 -50.5 -47t-73 -60.5t-60.5 -49.5q50 -26 98.5 -43.5t103.5 -27.5q22 -4 43 -3 q31 0 61 8q48 14 81 53q16 7 17.5 4.5t-3.5 -20.5q-49 -57 -135 -73q-37 -7 -74 -7q-48 0 -94 12q-82 20 -141 62q-86 -72 -139 -127.5t-74 -110.5q-18 -43 -29 15z" />
<glyph unicode="y" horiz-adv-x="888" d="M-856 -1126q-26 67 -26 131q0 236 347 436q160 88 462.5 216.5t394.5 172.5q40 81 59 135q92 259 92 350v11q-3 16 -25.5 12.5t-56.5 -23.5q-44 -25 -84.5 -52.5t-90.5 -65t-75 -54.5q-24 -19 -69 -37q-25 -11 -43 -11q-15 0 -25 7q-25 16 -25 46q0 22 13 51 q23 48 86 111q51 51 89 51q9 0 17 -3q1 -1 5 -3l8 -4t4 -3q6 -18 -13 -43h-5q-24 0 -59 -31q-38 -35 -63 -67q-35 -47 -35 -64q0 -4 1 -6q5 -9 15 -10t26 6.5t27 14t30 19.5t22 15q25 17 71.5 52.5t86 62t82.5 47.5q28 12 57 18.5t58.5 0t36.5 -32.5q7 -23 6.5 -53.5t-4 -59 t-15.5 -69.5t-20.5 -68.5t-26 -72.5t-25.5 -64.5t-26 -61.5l123 68q106 61 223.5 146t149.5 145q20 12 22.5 10.5t-2.5 -19.5q-22 -46 -99 -110.5t-147 -109.5t-131 -79q-20 -13 -151 -82l-4 -12q-115 -313 -312 -589.5t-446 -450.5q-67 -46 -142 -70q-71 -23 -140 -23h-6 q-72 1 -132.5 44t-89.5 125zM-850 -944q-5 -29 -5 -57q0 -32 7 -64q11 -59 41 -103t81 -66q34 -16 75 -16q18 0 37 3q77 12 178.5 75.5t196.5 152t180 187.5t139 187q130 217 201 385q3 9 12.5 28t13.5 29q-85 -40 -180.5 -81.5t-215 -91.5t-183.5 -77q-66 -27 -132.5 -61 t-144 -83t-138.5 -101t-106.5 -117t-56.5 -129z" />
<glyph unicode="z" horiz-adv-x="444" d="M-877 -846q-18 27 -18 58q0 81 115 196q161 149 612 246q48 11 147 30t148 31l172 41q13 42 13 79q0 50 -25 89q-29 42 -53 56t-66 14q-14 1 -38.5 -3t-31.5 -5q-11 1 -18 8q-5 2 -8 12q0 5 1.5 8t5 6t12 9.5t19 14.5t30.5 24t42 36q42 36 95 114q44 64 44 103q0 8 -2 15 q-5 25 -33 25.5t-50 -9.5q-55 -18 -113.5 -66.5t-95.5 -101.5q-7 -7 -17 -3.5t-17.5 15t-2.5 19.5q15 23 43.5 52t64 60t74.5 53q38 22 74 32q16 5 30 6q18 0 36 -8q30 -14 44 -54q4 -13 4 -27q0 -50 -51 -120q-66 -89 -184 -189q21 3 37 3h9q92 1 149 -75q44 -58 44 -126 q0 -25 -6 -51q191 49 310 92q29 11 44.5 25t18.5 25t12 27.5t27 30.5q14 11 26 -7q8 -11 8 -23q0 -17 -15 -36q-12 -17 -35 -30q-31 -20 -113 -49q-99 -34 -291 -82q-43 -142 -191.5 -298t-289.5 -237q-64 -34 -134 -64.5t-163 -58.5q-94 -26 -174 -34q-19 -2 -38 -2 q-60 0 -118 18q-76 24 -119 86zM-842 -825q16 -42 60.5 -63.5t100.5 -21.5h9q51 0 94 5q47 6 86 16q207 57 389 177t304 288q55 73 88 154l-160 -37q-17 -4 -50 -11q-129 -28 -199 -45t-178 -48.5t-196.5 -70t-171.5 -87.5q-78 -46 -138 -120q-44 -54 -44 -102q0 -17 6 -34z " />
<glyph unicode="{" horiz-adv-x="557" d="M-41 -395.5q-15 48.5 2 153.5q10 59 54.5 144.5t112.5 191t75 117.5q18 31 20.5 59.5t-11.5 54.5t-25 39.5t-33 34.5l-7 7q-19 21 -17.5 32.5t13 19.5t11.5 5q3 0 46 27t105 78t98 98q40 50 53.5 106.5t8 110.5t-26.5 145q-28 120 -28.5 158.5t20.5 83.5q28 68 166 125 q32 8 55 1.5t39 -20.5q9 -9 13.5 -19t-0.5 -16t-27 2q-33 14 -90 -9.5t-99 -69.5q-71 -79 11 -254q19 -42 28 -105t-3.5 -147t-55.5 -146q-32 -46 -79 -84t-85.5 -56t-71 -32t-36.5 -18q-3 -3 -3 -4t1.5 -2.5t4.5 -3t8 -5t10.5 -8t12 -13t13 -20t13.5 -29t13 -38.5 q7 -28 6.5 -55.5t-9.5 -58.5t-22.5 -61.5t-32.5 -63t-40 -63.5t-44.5 -63t-45.5 -62q-14 -19 -21 -28q-41 -57 -60.5 -105.5t-18.5 -78t11.5 -51.5t21 -31t18.5 -12q22 -10 49.5 5t46.5 34q11 13 32 4t15 -31q-12 -28 -59 -50t-92 1q-49 27 -64 75.5z" />
<glyph unicode="|" horiz-adv-x="614" d="M158 -221q3 37 12 84l227 846l66 194q67 198 72 203q2 2 3.5 21t7.5 32t19 6q8 -4 9 -17t-2.5 -28t-8 -29t-8.5 -24l-4 -10q-53 -191 -100 -379l-99 -377l-76 -246l-73 -245q0 -4 -4.5 -31t-14.5 -56t-20 -28q-18 0 -6 84z" />
<glyph unicode="}" horiz-adv-x="686" d="M-86.5 -360.5q-0.5 8.5 4.5 12t23 -9.5q9 -6 20 -16.5t16.5 -15.5t17.5 -11.5t23 -5.5t31 4q117 26 152 237q7 44 12 123t9 131t27 109.5t66 89.5q52 38 109 65t81 34.5t38 10.5q-207 54 -213 197q-3 55 20.5 112t54.5 96.5t79.5 99t74.5 99.5q72 111 85 152t-17 74 q-32 29 -89 23h-9l1 1q2 1 6.5 8t9.5 13t18 10t32 2q44 -5 78.5 -33t38.5 -73q11 -114 -105 -254q-11 -14 -45.5 -56.5t-52 -65t-45 -62t-41 -65.5t-23.5 -56.5t-8 -53.5q4 -33 52.5 -75t76.5 -54q4 -2 17 -7t23.5 -9.5t22 -11t16 -13.5t1.5 -14q-5 -13 -82.5 -46 t-103.5 -59q-7 -7 -31 -26t-35 -34t-27 -47t-24.5 -85.5t-11.5 -130.5q-4 -95 -19.5 -164t-42.5 -110t-51 -62t-57 -39q-52 -33 -119 -17t-82 68q-2 2 -2.5 10.5z" />
<glyph unicode="~" horiz-adv-x="931" d="M231 237q6 17 25 33q43 38 74 48.5t82 3.5q38 -6 73 -44t50 -45q27 -13 46.5 -19t41.5 -4t41 17q14 13 35 42.5t35.5 46.5t21.5 10q16 -12 5 -56t-44 -71q-19 -17 -29 -24t-32 -16.5t-42 -7t-50.5 16t-65.5 41.5q-44 36 -78.5 51t-59.5 8.5t-40 -18t-33 -33.5 q-22 -29 -44 -18q-20 11 -12 38z" />
<glyph unicode="&#xa1;" horiz-adv-x="481" d="M80 -297q-2 17 8 41q373 501 604 1260q25 19 26 15q1 -1 1 -3q0 -6 2 -10q-56 -286 -207.5 -654.5t-349.5 -632.5q-25 -43 -57 -43q-25 0 -27 27zM704 1243.5q2 16.5 6 30t9 24.5q11 20 38 35t38 -4q8 -25 -13.5 -70t-52.5 -49q-15 -2 -21 7.5t-4 26z" />
<glyph unicode="&#xa3;" horiz-adv-x="796" d="M-156 8q-4 35 26 57t81 39q23 8 76 21.5t73 19.5l84 19l17 14l12 10l6 5q63 73 125 217q32 75 49 129q-6 -1 -31 -8t-38 -9q-77 -12 -91 -2q-8 5 -10.5 10t0.5 10.5t6 8.5t11 9.5t10 8.5q12 8 59.5 14.5t67.5 6.5q11 0 24 13l13 13q17 55 31.5 96.5t43 101.5t59 101 t76.5 73.5t97 39.5q59 7 104.5 -31t51.5 -71q3 -41 -3 -41q-4 -1 -30 26q-19 18 -35 31q-33 23 -67 16.5t-67.5 -35t-58.5 -63.5t-41 -70q-23 -46 -40 -122q-10 -35 -13 -58l148 6q44 3 109.5 6.5t72.5 4.5q28 1 37 -13.5t6 -27.5q-2 -5 -66 -9q-18 -2 -61 -2l-113 -4 q-57 -2 -133 -2q-8 0 -14 -3.5t-10 -7.5t-7 -8.5t-5 -7t-3 -1.5q-26 -91 -75.5 -180.5t-83.5 -133.5t-43 -49q1 0 20 2.5t54.5 7t66.5 7.5q18 3 40 5.5t50.5 5.5t46.5 5l164 8q162 11 233 2q69 -8 68 -21q-3 -7 -14 -5q-7 2 -69.5 -3.5t-122 -11t-60.5 -4.5q-1 -1 -99 -13 t-207 -23.5t-133 -10.5q-36 1 -72 -12t-44 -21q-59 -48 -154.5 -96t-134.5 -53q-35 -5 -51.5 14.5t-18.5 48.5zM-93 3q3 -7 46 9q65 23 138 67q12 8 11 9q-9 0 -38.5 -4t-73 -17t-60.5 -30q-26 -27 -23 -34z" />
<glyph unicode="&#xa8;" horiz-adv-x="440" d="M68 543q0 55 36 55q18 0 32 -13t14 -30q0 -55 -39 -55q-19 0 -31 12t-12 31zM217.5 543.5q2.5 17.5 30.5 36.5q31 22 45 8q13 -13 15 -31.5t-11 -32.5q-33 -42 -64 -14q-18 16 -15.5 33.5z" />
<glyph unicode="&#xa9;" horiz-adv-x="1282" d="M139 530q14 71 67 143.5t124 129.5t147 100t144 66q35 12 81 20q0 3 1.5 6t3 7t2.5 6q114 55 199.5 14t136 -130.5t53.5 -189.5q4 -90 -49 -177t-134 -156q-69 -59 -155.5 -101.5t-179.5 -63t-188.5 -4.5t-170.5 72q-57 41 -76 112.5t-6 145.5zM182 471q-5 -46 8.5 -94.5 t49.5 -81.5q41 -38 103.5 -55t121.5 -15t115 17q83 19 163.5 59.5t149.5 98t112.5 137t47.5 165.5q2 65 -17.5 130t-58.5 114.5t-96 66.5t-129 -14q140 20 186 -26q11 -13 -4 -17q-13 -4 -23 7q-19 20 -69 17.5t-103 -15.5t-98 -31q-146 -56 -266.5 -150.5t-169.5 -218.5 q-18 -48 -23 -94zM471 530q4 66 45 128.5t98 97.5q58 34 116 23t69 -52.5t-39 -99.5q-12 -6 -20.5 2t-2.5 20q55 55 29 82q-24 24 -81 6q-18 -6 -36 -16q-99 -61 -131 -162q-26 -92 13 -123t126 2q3 -4 5.5 -13.5t5.5 -14.5q-91 -38 -144.5 -9t-52.5 129z" />
<glyph unicode="&#xad;" horiz-adv-x="741" d="M213 285q0 15 9.5 26t15.5 11l30 2q30 3 72 6t86 5.5t79 1.5t44 -5q33 -16 51.5 -31.5t1.5 -24.5q-13 -7 -140.5 -6.5t-142.5 -3.5q-22 -10 -64 -3.5t-42 22.5z" />
<glyph unicode="&#xae;" horiz-adv-x="1400" d="M247 434q-3 127 75 232q50 67 121 128t157.5 107t174.5 67.5t179.5 5t165.5 -76.5q10 -10 2 -19.5t-20 -3.5q-121 89 -264.5 72t-274.5 -101t-201 -198q-44 -67 -65.5 -138.5t-8.5 -149.5t70 -132q60 -58 151 -80t186.5 -10t190 53.5t165 102.5t109 146t24.5 175 q-22 131 -104.5 211t-188.5 41q-21 -14 -28 -9t3 28q59 21 117 11.5t108.5 -51.5t86 -97.5t51 -126t2.5 -136.5q-12 -83 -65.5 -153t-130 -116t-159.5 -74.5t-165 -39.5q-103 -14 -209 11t-166 96q-86 98 -89 225zM477 348q42 71 105 201l4 12l4 4l49 94q8 18 29 50.5 t26 40.5l-22 -7q-13 -3 -12 5q1 13 17 21q2 1 3 1l35 12l26 54q5 9 16.5 10t20 -5.5t4.5 -17.5l-10 -24q60 14 105 -8q36 -18 40 -58.5t-26 -66.5q-67 -62 -197 -107q21 -9 54.5 -29t44.5 -24q53 -25 95.5 -25t92.5 29q35 7 35 -4q0 -5 -6 -12q-123 -68 -232 -15 q-7 3 -34.5 18.5t-56.5 29.5t-48 18q-73 -150 -107 -205q-17 -27 -34 -24.5t-21 32.5zM657 582q198 62 230 133q14 43 -31 54t-102 -5q-7 -15 -25.5 -46t-28.5 -52z" />
<glyph unicode="&#xb4;" horiz-adv-x="712" d="M164 451q2 3 5.5 9t6.5 9l19 25l20 28q6 5 19 19t20 18q16 9 31 0q12 -5 19 -19t3 -26q2 -6 -8 -16l-45 -37q-67 -44 -82 -29q-3 7 -6 15z" />
<glyph unicode="&#xb8;" horiz-adv-x="569" d="M96 -182q6 26 25 26q2 0 16.5 -10t35 -20.5t36.5 -10.5q18 0 18 37q0 17 -7 54.5t-7 52.5q0 16 4 20q2 7 5 18t4.5 17t5 12.5t8.5 9.5t12 3q33 0 33 -35q0 -13 -6.5 -34.5t-6.5 -27.5t9.5 -42t9.5 -58q0 -78 -90 -78q-45 0 -75 18t-30 48z" />
<glyph unicode="&#xbf;" horiz-adv-x="909" d="M80 -188q10 24 97.5 131t183.5 219l102 119q35 35 197.5 254.5t177.5 265.5q11 32 13 53.5t-0.5 27t-4.5 5.5t-9 4.5t-12.5 12.5t-1.5 16q7 9 28.5 13.5t43.5 -5.5t27 -37q5 -26 -9 -80q-9 -26 -14 -35q-35 -122 -475 -639q-80 -92 -150.5 -184t-108 -150.5t-32.5 -66.5 q5 -7 50.5 2t104.5 31t93 47q9 7 45 32.5t55 40.5t49.5 42t56 57t48.5 65q2 0 16.5 26t30 60.5t18.5 53.5q2 16 5 27q1 4 0 4l-7 5q-10 10 -4 18.5t17 6.5q9 0 21.5 -14t21.5 -41.5t4 -57.5q-6 -38 -43 -102.5t-115 -146t-172 -134.5q-70 -40 -131 -60.5t-99.5 -21 t-61.5 4.5t-32 14q-59 54 -24 117zM867.5 1128q-4.5 27 2.5 35q6 10 35.5 26t38.5 7q12 -10 18 -32t1 -36q-4 -12 -41 -24t-43 -6q-7 3 -11.5 30z" />
<glyph unicode="&#xc0;" d="M-147 -80q-19 170 114 332q19 21 43 40t53 33.5t58 13t51 -23.5q14 -16 7 -37t-24 -27.5t-34 7.5q-50 43 -129 -47q-85 -107 -98 -262q-10 -119 81 -109q113 11 346 199q42 33 68 57q136 120 373 354.5t303 297.5l82 77q-46 -12 -176.5 -49t-191.5 -52.5t-152.5 -31.5 t-157.5 -16q-143 0 -143 135q0 54 34 143q6 9 15 9q5 0 12.5 -7.5t7.5 -13.5q0 -18 -11 -59t-11 -68q0 -60 22.5 -84t71.5 -24q36 0 87 8t81 15t100.5 25t81.5 21q149 39 377 96q25 24 108.5 105t122 116.5t107 97.5t127.5 109t119 89q1 0 22 15t31 22t35 23.5t41 25 t40 21.5t41.5 19t36.5 10.5t34 2.5t26 -10q35 -31 -82 -189q-83 -121 -186 -278l-60 -95q140 7 262 7h49q52 -1 115.5 0.5t134 -5t139.5 -15.5t132.5 -31.5t111.5 -52.5t76.5 -79.5t28.5 -111.5q0 -27 -25.5 -74t-44.5 -47q-20 -1 -29.5 17t-1.5 36q8 8 23.5 22t21.5 20.5 t11.5 18t5.5 25.5q0 55 -39.5 99.5t-103.5 72t-132 43.5t-139 23q-265 24 -618 -2q-205 -333 -344.5 -593.5t-233.5 -527.5q-102 -322 -33 -385q4 -1 3 -5q-1 -1 -1 -2.5v-2.5v-2q-36 -4 -56 16.5t-23 58t1.5 80t17 89.5t23.5 80.5t21 58.5q95 268 239.5 541t342.5 592 q-176 -15 -328 -43q-13 -2 -104 -23q-54 -54 -153.5 -155t-161.5 -163t-154.5 -152.5t-166.5 -155.5t-161.5 -137t-174.5 -132t-173 -109q-33 -19 -74 -30t-83 -10t-71.5 28.5t-33.5 81.5zM1300 895q190 42 414 57l74 117q97 155 227 332q1 2 7 10.5t9.5 14.5t9.5 16.5 t7.5 16.5t3.5 15t-2 11q-10 18 -115.5 -52.5t-204 -147.5t-116.5 -95q-141 -122 -314 -295zM2028 1757q7 -3 10 2.5t10 5.5l10 -1q9 -1 15 -5q8 -4 10 -4l41 -12q5 -3 15.5 -17t17.5 -22q32 -27 27 -59q-5 -22 -23 -17q-16 4 -45.5 41.5t-30.5 38.5q-12 5 -23 14l1 2 q1 2 1 5l-26 6q-11 0 -8 14q2 0 2 2t-4 6z" />
<glyph unicode="&#xc1;" d="M-147 -98q9 15 6 18v8q0 3 -1 9.5t-1 9.5l4 18q-11 19 2 49q0 3 4 15q0 12 4 20q5 27 27 86l14 23q34 64 86 125q32 32 55 41h-2q44 23 101 0q3 -3 6 -23l-19 -2q-34 11 -78 -16q-24 -17 -36 -45q-41 -48 -56 -84l-8 -17q-25 -45 -35 -78q0 -3 -3 -8.5t-3 -7.5 q-3 -8 -6 -22.5t-6 -22.5q-12 -78 -2 -117l4 -10q0 -11 8 -14q21 -24 51 -15q54 3 90 25q17 8 48.5 28t44.5 27q14 6 35.5 23t29.5 22l8 2h-2q58 45 62 49q4 2 20 17l115 92l57 55l27 25l49 49l96 88l27 29l24 24l27 25l23 24q21 14 67 60v-2l8 10l17 18q11 11 20 13 q0 2 2 4l10 14l13 12l26 25v-2q13 23 27 31l27 26q65 57 141 133l10 9q4 3 9 7t10 10t6 7h-2q-7 0 -20.5 -3t-20.5 -3q-51 -13 -66 -20q-16 2 -35 -9l-10 -2q-6 0 -10 -4q-6 -2 -25 -2q-7 -3 -25.5 -8t-25.5 -8q-9 -4 -24 -6.5t-21 -5.5q-14 -6 -63 -19l-50 -14 q-12 -7 -47 -12l-32 -7l-27 -6q-10 0 -64 -14q-2 0 -5 -1t-5 1q-21 -8 -59 -8q-47 -10 -88 6q-32 14 -53 35l-11 18v-2l-10 16q-16 26 -16 78l6 29q0 8 2 10q4 -4 4 -10q-10 -45 2 -72l2 13q-2 6 -2 26q0 5 3.5 18t4.5 19v8l4 12l2 13q0 4 2 6q1 1 -2 4q-2 -2 -2 -8l2 2 q0 -2 -2 -2q0 -2 2 -2l-2 -2q0 -8 -2 -8h-2v-5q-4 -4 -12 -4q-4 8 2 17l8 -4v-2q0 2 4 6q-9 18 -2 18q-3 6 2 8v7q8 5 8 2l5 2l2 8l-5 -4l-4 2q2 2 2 12q3 2 5 8h4l2 2v4l2 7q0 -1 2 -3l8 7q3 -1 4 -4.5t4 -6.5h-2q6 -3 6 -6v-14q-15 -41 -18 -78l-6 -45q-2 -19 8 -47 q0 -22 35 -41q21 -8 65 -8l56 6q28 2 77 14l50 8q8 3 25.5 7.5t25.5 7.5l73 22q15 0 70 19l96 24l45 13l47 14l52 12q14 3 50 13t58 14l16 9q17 9 25 15q8 11 33 31l51 49l70 66l76 61l75 66q65 58 115 96l45 35q31 24 172 127l21 12q14 10 29.5 19t39 21.5t35.5 19.5l41 12 q22 9 31 -6q20 -20 10 -52q-3 -12 -12.5 -30.5t-12.5 -30.5l-10 -16q-11 -19 -61 -86l-17 -21q-2 -2 -2 -4q-3 -9 -8 -14q0 -3 -8 -11q0 -8 -6 -8l2 -2q-3 0 -6 -6l-13 -20v2l-18 -27h-6q2 -2 2 -6q-10 -3 -23 -25q-4 -4 -4 -18l-10 -2l-2 -12l-14 -13v-12q0 -2 -2 -4 q-3 0 -5 -2h-2q0 -10 -18 -33q-6 -6 -16 -29l-15 -16v2l-10 -10l-14 -27l-11 -18q0 -6 5 -6q8 4 30.5 5t24.5 1h51q85 0 111 4q69 0 108 -2q6 0 23 1t30 0.5t23 -3.5q6 -2 25 -2l20 -4l10 2q15 0 19 -4q9 3 12 -2l55 4l56 -13h10q11 -2 39.5 -5.5t43 -6t37.5 -7t41 -10 t35 -12.5q49 -8 125 -53q85 -55 99 -139q6 -53 -15 -111q-14 -24 -30 -30l-2 2q-9 -4 -13 -2l-10 10v10q27 32 31 84q6 25 -4 68q-9 38 -54 59q-38 33 -92 51l-69 19q-6 3 -76 18l-43 6q-5 0 -35 6h-23q-3 0 -9.5 1t-10.5 1q-2 0 -37 7l-74 4q-82 5 -98 4h-74q-9 0 -25.5 -1 t-25.5 -1l-141 4q-8 0 -8 2q-4 4 -13 4q-6 0 -8 2q0 -6 4 -10l-2 -4q-16 10 -35 2q-2 -1 -39 -6q-23 0 -49 -9h2l-12 -12l-10 -25q-3 -13 -8 -18v2l-19 -27q-2 -3 -9.5 -20t-12.5 -23q-2 -3 -4.5 -11t-6.5 -13t-10 -8v2q-3 -7 -11 -27.5t-13 -30.5q-4 0 -4 -10q-3 -3 -8 -12 t-9 -14q-4 -14 -12.5 -30t-20 -35.5t-16.5 -29.5l-25 -49l-38 -74l-13 -24l-6 -10l-24 -60l-29 -55q-2 -4 -14 -30t-17 -40l-24 -47q-6 -18 -21 -47.5t-18 -36.5l-7 -14l-22 -45q-3 -19 -10 -29l-4 -4q-2 -2 -2 -4l-23 -45l-12 -23l-19 -45l-16 -45q-16 -29 -29 -78 q-6 -13 -30 -88q-5 -11 -13.5 -34t-13.5 -35q-4 -12 -4 -19l-8 -28q0 -5 -3 -13t-4 -10q0 -5 -4 -33v-14q0 -2 -1.5 -9t-1.5 -13.5t3 -10.5q4 -29 45 -26q15 0 17 -19q-15 -4 -19 -2l-12 -6l4 -2q-6 -3 -6 2q-4 0 -7 1l-3 1q-4 0 -6 -2q-2 0 -2 2v2q-4 7 -17 4l-6 8h2 q-5 4 -10 13v-2q-19 22 -19 49q-4 40 5 76q0 4 2 15t2 15q0 12 3.5 24t10 28.5t8.5 21.5l4 35q0 1 3.5 5t4.5 7q4 17 43 121l29 78l23 53q13 30 35 66l2 18q16 35 34 61q15 36 19 41q0 11 6 23q2 2 2 12l8 6q-3 6 0 13l21 32q-1 2 4 21l12 12q7 23 8 23q0 6 2 8q8 8 11 14 l2 12l6 15q5 10 51 100q4 4 4 8q6 6 6 11q0 4 2 6l8 8q0 1 2 4t3 6l2 8q4 0 4 7l24 45l6 6v-2l9 20v8l4 -2v6h2l8 2l2 9l2 2q3 -7 2 -8l8 8q1 0 1 3t3 9q10 7 13 20q1 1 2 1q4 2 0 6q1 5 5 7q1 0 1 1l-4 2q0 1 -1 0.5t-3 -2.5q4 -4 -2 -15l-5 5v-5l-8 -2q0 10 11 19l-3 -6 l5 2l-1 5q-1 4 -1 9l18 37q23 36 29 53l63 113l21 33l8 18v-2q6 0 6 6l-6 4q-46 0 -82 -8h-8q-9 0 -28.5 -2t-27.5 -2q-25 -2 -75 -14l-93 -17l-32 -2q-27 -2 -58 -14l-24 -4l-15 -10l-6 -7l-14 -8q-10 -16 -21 -16l-10 -17l-61 -57q-2 -2 -10 -2l-9 -6l-4 -8l-6 -6 q-11 -18 -16 -23l-11 -6l-61 -62l-16 -14l-13 -12q-4 -4 -10 -4q-3 -9 -10 -6v-2h2q-4 -7 -12 -7q-2 0 -2 -2v-6h-2l-17 -12q0 -6 -6 -12q0 -4 -8 -4v-3l-10 -6q-9 -10 -13 -6q-3 -9 -4 -10q0 -1 -1 -2.5t-2.5 -4t-2.5 -5.5q-4 0 -12 -6h-2q-2 -2 -9 -8q-5 -5 -4.5 -5t2.5 2 l1 -1q2 -2 2 -3l-3 -6h3l-7 -6l-8 -12q0 2 -1.5 4.5t-2.5 1.5q-2 -2 -2 -6l-12 -11v2q-7 -10 -15 -10q-4 -4 -4 -6l-8 -12q-2 0 -6.5 -1.5t-7.5 -0.5q0 -10 -12 -13q-3 -10 -9 -2l-2 -2q2 0 4 -2v-2l-4 4q-2 -2 -2 -6q-6 0 -12 -6v-6l-16 -19l-7 -10q-4 -4 -4 -6q3 2 9 4v-2 q1 -4 -3 -7t-6 -3l-2 2l-2 -2v2l-6 -6h2l-4 -2l-16 -21l-9 -6l-14 -12h4q-1 -5 -2.5 -7t-4.5 -4t-5 -4t-2 -4t-2 -2q-8 -7 -101 -100l-20 -16q-8 -13 -37 -31l-10 -8q-10 -14 -29 -25h2l-4 -8l-20 -8l2 -2l-4 -2h2q0 -7 -8 -4l-9 -11l-12 -10l-27 -18q0 -2 -2 -4l-4 -5 l-2 -2q-4 -4 -4 -6q-3 -6 -6 -6q-1 -3 -6 -6t-6 -6l-33 -23l-29 -24q-6 -3 -16 -13q-18 -6 -21 -6l-8 -12q-15 3 -20 -10q-24 -14 -33 -25l-8 -4l-6 -6l-17 -10l2 4q-11 -7 -14 -4q-2 0 -2 -6q-17 -7 -25 -15q-83 -36 -86 -37q-7 2 -9.5 2t-13 -3t-12.5 -3q-6 0 -18 4 q0 3 -8 0h-6v-4h-2v2h-4q0 1 1 3t1 3q0 2 -4 2q-6 2 -13 9q0 -2 -4 -2l4 2q-1 0 -2 1t-2 1l-4 -4q2 2 2 4v2l-4 -4q-2 2 2 6q0 4 -6 4h-4q0 -6 -2 -8q-4 4 -4 10l-15 20q-14 14 -16 29l-8 27q-1 1 -4 -0.5t-4 -1.5zM-43 -184q4 -4 8 -4q2 0 5 1t5 -1q11 0 23 6q1 0 3 1t3 1 h-10q-4 -4 -6 -4h2q-2 -2 -10 -2q-17 4 -23 2zM4 -180l10 -4l13 4l4 4q1 0 4 2t4 2h2q-3 0 1 2l5 2h6l31 16h-2l12 2l6 7l-45 -19q-36 -16 -51 -18zM127 -127h4v2q-4 0 -4 -2zM342 864q2 0 4 -2zM369 938l2 8h-2v-8zM688 328q4 0 4 4zM690 332v2l2 2zM739 377q-6 6 2 6z M741 412q0 -4 2 -6q3 0 5 2l2 -2v6h-7h-2zM752 418l6 2q7 3 4 6l-4 -2q0 -4 -4 -4q-2 0 -2 -2zM788 455q0 -2 3 -2v2h-3zM799 459q6 0 6 8zM823 489q1 1 2 3t2 2zM825 469l2 2q-2 0 -2 -2zM895 555h4v2q-4 0 -4 -2zM911 549q-2 1 2 4zM928 584l2 -2q0 4 -2 2zM991 653l2 2 q-4 0 -2 -2zM1057 -526q-3 -3 0 -6v6zM1278 905q16 0 25 6q1 0 5 1t5 1l69 13q8 3 26 4t26 4l32 6q28 0 80 10l47 2q41 6 95 6q15 0 18 19l27 33l8 16l33 39l2 8q0 1 1 1.5t2.5 2t2.5 4.5q4 4 4 11q12 5 22 28q44 59 56 80l41 64l49 73q20 20 39 54l20 26l10 25q6 4 10 10 t8 17.5t5 13.5l2 6q-2 -2 -10 -2q-16 -7 -54 -30t-53 -30l-8 -4h2l-90 -63q-37 -21 -43 -27l-12 -8q0 -8 -11 -12q-2 0 -2 4q-2 0 -4 -2q3 -3 -2 -8q-6 -5 -27 -24.5t-36 -27.5q-16 -18 -60 -45l-24 -24q-2 -7 -12 -17q-18 -4 -21 -10q2 -2 0 -4q-4 -4 -6 -2q-9 -3 -14 -8v2 q-3 -6 -11 -10h2q-39 -28 -61 -50l-68 -55l-20 -12q0 -2 -6 -8l-62 -58l-10 -10q-2 -2 -12 -2q-2 -2 -2 -6q-6 0 -6 -4q-6 -3 -10.5 -7t-7.5 -9t-5 -7h-2q1 -1 -2 -4zM1485 565q0 -4 4 -8l2 -2v6q2 2 2 8v6q0 -2 -2 -2q0 -5 -6 -8zM1493 594q6 6 6 -4h2q-6 -9 -6 -4v4h4z M1499 602v2q0 6 4 10q5 -4 2 -12h-2v2l-2 -2h-2zM1528 655l6 -2v2l4 4q-3 0 -6 3q-4 -4 -4 -7zM1534 649h2q2 -2 4 0l-4 2zM1585 721l2 6v-2q0 1 1 3t1 3v2q-4 -4 -4 -8v-4zM1589 733q4 4 4 6q-4 0 -4 -6zM1593 743l9 13q-9 -9 -9 -13zM1602 756q6 3 6 10l-2 -4zM2097 1657 q3 3 6 9t6 9l19 25l20 29q6 5 19 18.5t20 17.5q15 9 31 0q12 -5 19.5 -19t3.5 -26q2 -5 -9 -16l-45 -37q-65 -47 -82 -29q-3 7 -6 15z" />
<glyph unicode="&#xc2;" d="M-147 -80q-19 170 114 332q19 21 43 40t53 33.5t58 13t51 -23.5q14 -16 7 -37t-24 -27.5t-34 7.5q-50 43 -129 -47q-85 -107 -98 -262q-10 -119 81 -109q113 11 346 199q42 33 68 57q136 120 373 354.5t303 297.5l82 77q-46 -12 -176.5 -49t-191.5 -52.5t-152.5 -31.5 t-157.5 -16q-143 0 -143 135q0 54 34 143q6 9 15 9q5 0 12.5 -7.5t7.5 -13.5q0 -18 -11 -59t-11 -68q0 -60 22.5 -84t71.5 -24q36 0 87 8t81 15t100.5 25t81.5 21q149 39 377 96q25 24 108.5 105t122 116.5t107 97.5t127.5 109t119 89q1 0 22 15t31 22t35 23.5t41 25 t40 21.5t41.5 19t36.5 10.5t34 2.5t26 -10q35 -31 -82 -189q-83 -121 -186 -278l-60 -95q140 7 262 7h49q52 -1 115.5 0.5t134 -5t139.5 -15.5t132.5 -31.5t111.5 -52.5t76.5 -79.5t28.5 -111.5q0 -27 -25.5 -74t-44.5 -47q-20 -1 -29.5 17t-1.5 36q8 8 23.5 22t21.5 20.5 t11.5 18t5.5 25.5q0 55 -39.5 99.5t-103.5 72t-132 43.5t-139 23q-265 24 -618 -2q-205 -333 -344.5 -593.5t-233.5 -527.5q-102 -322 -33 -385q4 -1 3 -5q-1 -1 -1 -2.5v-2.5v-2q-36 -4 -56 16.5t-23 58t1.5 80t17 89.5t23.5 80.5t21 58.5q95 268 239.5 541t342.5 592 q-176 -15 -328 -43q-13 -2 -104 -23q-54 -54 -153.5 -155t-161.5 -163t-154.5 -152.5t-166.5 -155.5t-161.5 -137t-174.5 -132t-173 -109q-33 -19 -74 -30t-83 -10t-71.5 28.5t-33.5 81.5zM1300 895q190 42 414 57l74 117q97 155 227 332q1 2 7 10.5t9.5 14.5t9.5 16.5 t7.5 16.5t3.5 15t-2 11q-10 18 -115.5 -52.5t-204 -147.5t-116.5 -95q-141 -122 -314 -295zM1950 1686q0 9 10 16l111 110q2 1 5 2t4.5 2t2.5 1q5 0 10 -5l105 -110q6 -9 6 -16q0 -15 -6 -15q-9 0 -15 6l-100 82l-107 -82q-12 -4 -14 -4q-12 0 -12 13z" />
<glyph unicode="&#xc3;" d="M-147 -80q-19 170 114 332q19 21 43 40t53 33.5t58 13t51 -23.5q14 -16 7 -37t-24 -27.5t-34 7.5q-50 43 -129 -47q-85 -107 -98 -262q-10 -119 81 -109q113 11 346 199q42 33 68 57q136 120 373 354.5t303 297.5l82 77q-46 -12 -176.5 -49t-191.5 -52.5t-152.5 -31.5 t-157.5 -16q-143 0 -143 135q0 54 34 143q6 9 15 9q5 0 12.5 -7.5t7.5 -13.5q0 -18 -11 -59t-11 -68q0 -60 22.5 -84t71.5 -24q36 0 87 8t81 15t100.5 25t81.5 21q149 39 377 96q25 24 108.5 105t122 116.5t107 97.5t127.5 109t119 89q1 0 22 15t31 22t35 23.5t41 25 t40 21.5t41.5 19t36.5 10.5t34 2.5t26 -10q35 -31 -82 -189q-83 -121 -186 -278l-60 -95q140 7 262 7h49q52 -1 115.5 0.5t134 -5t139.5 -15.5t132.5 -31.5t111.5 -52.5t76.5 -79.5t28.5 -111.5q0 -27 -25.5 -74t-44.5 -47q-20 -1 -29.5 17t-1.5 36q8 8 23.5 22t21.5 20.5 t11.5 18t5.5 25.5q0 55 -39.5 99.5t-103.5 72t-132 43.5t-139 23q-265 24 -618 -2q-205 -333 -344.5 -593.5t-233.5 -527.5q-102 -322 -33 -385q4 -1 3 -5q-1 -1 -1 -2.5v-2.5v-2q-36 -4 -56 16.5t-23 58t1.5 80t17 89.5t23.5 80.5t21 58.5q95 268 239.5 541t342.5 592 q-176 -15 -328 -43q-13 -2 -104 -23q-54 -54 -153.5 -155t-161.5 -163t-154.5 -152.5t-166.5 -155.5t-161.5 -137t-174.5 -132t-173 -109q-33 -19 -74 -30t-83 -10t-71.5 28.5t-33.5 81.5zM1300 895q190 42 414 57l74 117q97 155 227 332q1 2 7 10.5t9.5 14.5t9.5 16.5 t7.5 16.5t3.5 15t-2 11q-10 18 -115.5 -52.5t-204 -147.5t-116.5 -95q-141 -122 -314 -295zM1984 1697q0 9 3 21q0 9 18 33q62 78 121 16q36 -32 61 -29.5t49 38.5q26 24 24 -5q-1 -12 -7 -34q-16 -32 -33.5 -45.5t-39.5 -8.5t-41.5 16.5t-51.5 35.5q-17 14 -34 2.5 t-42 -40.5l-3.5 -3.5t-2.5 -3.5q-23 -23 -21 7z" />
<glyph unicode="&#xc4;" d="M-147 -80q-19 170 114 332q19 21 43 40t53 33.5t58 13t51 -23.5q14 -16 7 -37t-24 -27.5t-34 7.5q-50 43 -129 -47q-85 -107 -98 -262q-10 -119 81 -109q113 11 346 199q42 33 68 57q136 120 373 354.5t303 297.5l82 77q-46 -12 -176.5 -49t-191.5 -52.5t-152.5 -31.5 t-157.5 -16q-143 0 -143 135q0 54 34 143q6 9 15 9q5 0 12.5 -7.5t7.5 -13.5q0 -18 -11 -59t-11 -68q0 -60 22.5 -84t71.5 -24q36 0 87 8t81 15t100.5 25t81.5 21q149 39 377 96q25 24 108.5 105t122 116.5t107 97.5t127.5 109t119 89q1 0 22 15t31 22t35 23.5t41 25 t40 21.5t41.5 19t36.5 10.5t34 2.5t26 -10q35 -31 -82 -189q-83 -121 -186 -278l-60 -95q140 7 262 7h49q52 -1 115.5 0.5t134 -5t139.5 -15.5t132.5 -31.5t111.5 -52.5t76.5 -79.5t28.5 -111.5q0 -27 -25.5 -74t-44.5 -47q-20 -1 -29.5 17t-1.5 36q8 8 23.5 22t21.5 20.5 t11.5 18t5.5 25.5q0 55 -39.5 99.5t-103.5 72t-132 43.5t-139 23q-265 24 -618 -2q-205 -333 -344.5 -593.5t-233.5 -527.5q-102 -322 -33 -385q4 -1 3 -5q-1 -1 -1 -2.5v-2.5v-2q-36 -4 -56 16.5t-23 58t1.5 80t17 89.5t23.5 80.5t21 58.5q95 268 239.5 541t342.5 592 q-176 -15 -328 -43q-13 -2 -104 -23q-54 -54 -153.5 -155t-161.5 -163t-154.5 -152.5t-166.5 -155.5t-161.5 -137t-174.5 -132t-173 -109q-33 -19 -74 -30t-83 -10t-71.5 28.5t-33.5 81.5zM1300 895q190 42 414 57l74 117q97 155 227 332q1 2 7 10.5t9.5 14.5t9.5 16.5 t7.5 16.5t3.5 15t-2 11q-10 18 -115.5 -52.5t-204 -147.5t-116.5 -95q-141 -122 -314 -295zM1882 1790q0 55 37 55q17 0 31 -13t14 -30q0 -55 -39 -55q-19 0 -31 12t-12 31zM2048 1757q-36 36 14 70q31 22 45 8q13 -13 15 -31t-11 -32q-33 -42 -63 -15z" />
<glyph unicode="&#xc5;" d="M-147 -80q-19 170 114 332q19 21 43 40t53 33.5t58 13t51 -23.5q14 -16 7 -37t-24 -27.5t-34 7.5q-50 43 -129 -47q-85 -107 -98 -262q-10 -119 81 -109q113 11 346 199q42 33 68 57q136 120 373 354.5t303 297.5l82 77q-46 -12 -176.5 -49t-191.5 -52.5t-152.5 -31.5 t-157.5 -16q-143 0 -143 135q0 54 34 143q6 9 15 9q5 0 12.5 -7.5t7.5 -13.5q0 -18 -11 -59t-11 -68q0 -60 22.5 -84t71.5 -24q36 0 87 8t81 15t100.5 25t81.5 21q149 39 377 96q25 24 108.5 105t122 116.5t107 97.5t127.5 109t119 89q1 0 22 15t31 22t35 23.5t41 25 t40 21.5t41.5 19t36.5 10.5t34 2.5t26 -10q35 -31 -82 -189q-83 -121 -186 -278l-60 -95q140 7 262 7h49q52 -1 115.5 0.5t134 -5t139.5 -15.5t132.5 -31.5t111.5 -52.5t76.5 -79.5t28.5 -111.5q0 -27 -25.5 -74t-44.5 -47q-20 -1 -29.5 17t-1.5 36q8 8 23.5 22t21.5 20.5 t11.5 18t5.5 25.5q0 55 -39.5 99.5t-103.5 72t-132 43.5t-139 23q-265 24 -618 -2q-205 -333 -344.5 -593.5t-233.5 -527.5q-102 -322 -33 -385q4 -1 3 -5q-1 -1 -1 -2.5v-2.5v-2q-36 -4 -56 16.5t-23 58t1.5 80t17 89.5t23.5 80.5t21 58.5q95 268 239.5 541t342.5 592 q-176 -15 -328 -43q-13 -2 -104 -23q-54 -54 -153.5 -155t-161.5 -163t-154.5 -152.5t-166.5 -155.5t-161.5 -137t-174.5 -132t-173 -109q-33 -19 -74 -30t-83 -10t-71.5 28.5t-33.5 81.5zM1300 895q190 42 414 57l74 117q97 155 227 332q1 2 7 10.5t9.5 14.5t9.5 16.5 t7.5 16.5t3.5 15t-2 11q-10 18 -115.5 -52.5t-204 -147.5t-116.5 -95q-141 -122 -314 -295zM1872 1710q-11 34 15 67t69 33q30 0 48.5 -18.5t25.5 -44.5q5 -33 -17.5 -64t-66.5 -30q-30 0 -49.5 17t-24.5 40zM1919 1704q0 -9 6.5 -18t16.5 -9q28 0 39.5 23t11.5 49 q-1 1 -5.5 8t-7.5 11t-8.5 8t-11.5 4q-41 0 -41 -76z" />
<glyph unicode="&#xc6;" horiz-adv-x="2437" d="M-291.5 -5.5q4.5 51.5 24 99t50.5 74.5q10 10 20 3t4 -21q-29 -51 -47 -106t-22 -107t16 -85.5t67.5 -42.5t131.5 23q87 30 179 87t153.5 107t158 133t148.5 124l426 331l-533 -32q-13 4 -14.5 15t10.5 15q112 6 319.5 23t272.5 22l1180 924q41 23 59 0q8 -11 2 -20 q-77 -88 -203 -248q100 12 216 13.5t232.5 -13t178.5 -45.5q0 -1 1 -2q22 -35 5 -37h-6q-99 43 -309.5 57t-345.5 -12q-237 -307 -412 -596q26 1 177.5 10t204.5 10.5t167.5 2.5t198.5 -7t166 -24q36 -16 -2 -31q-339 38 -932 8q-68 -112 -146 -258q-37 -70 -90 -162.5 t-85.5 -156.5t-72.5 -158q86 17 182 28t160 14.5t195 9t201 9.5q129 7 205 7q31 27 75 20q69 -9 83 -34q8 -16 -15 -25q-34 -12 -98 -2q-163 5 -230 0q-24 -1 -105.5 -5t-105 -5t-91.5 -5t-94.5 -6.5t-82.5 -7.5t-88 -10.5t-78 -13.5t-85 -17.5t-79 -20.5v2q-19 0 -22 48 q24 59 45.5 106.5t35.5 78.5t37.5 77t35 67.5t46 85.5t52.5 97q63 124 131 233l-176 -8l-263 -12q-306 -252 -583 -471q-33 -26 -113.5 -91t-125.5 -98.5t-115 -81.5t-136 -79.5t-135 -51.5q-56 -16 -100.5 0t-69 53.5t-35.5 88.5t-6.5 102.5zM1180 664q102 6 202 6 q61 0 205 4q230 373 563 786q-351 -281 -970 -796z" />
<glyph unicode="&#xc7;" horiz-adv-x="1230" d="M-35 -72q-2 28 2 80q0 28 6 66q3 45 15 92v-2l6 24l6 29v-2q4 15 9 31t12 35.5t10 29.5q16 53 55 133l10 21l15 33l41 86q6 18 12 18l8 16q0 1 4 13h-2q6 6 6 8l-2 -2l8 12q0 2 4 6l11 17q17 23 24 43l19 26l6 13h-2l12 14q3 8 12.5 21t12.5 18q3 3 7 11.5t7 12.5l20 29 l21 31q14 20 55 67l13 13q3 3 5.5 9t6.5 9l14 19q23 33 51 61l9 6l90 90l90 78v-4l51 39q3 3 13 9.5t14 10.5l10 9q3 3 9 7t9 7l27 22v-2q6 3 26 17t33 20h-2l10 4q29 17 72 37h-2l35 13l35 10q4 -4 12 -4q0 1 -2 8q12 4 18 4v-4q9 -9 19 8h8q-3 -3 4 -8q3 0 5 1t5 1 q5 0 25 4q4 -4 14 -4q16 -3 31 0l6 -4q0 -2 2 -2h6q12 -4 37 -4q-10 8 -39 14q-2 2 -8 2q2 0 4 2q5 1 11.5 -0.5t11 -3.5t15 -7t15.5 -7h-10l17 -11h-2q8 -12 12 -14v2l22 -20h-2q25 -25 27 -52q10 -13 10 -28q0 -3 1 -9t1 -10q4 -44 0 -59v2q-2 -4 -2 -20v-13q4 0 6 -2 l-6 -4v6l-8 6q2 2 2 11l-4 6q-9 0 -6 -8q0 -1 1 -2t1 -2q-6 -9 -6 -27q-4 -4 -4 -6q-3 -10 0 -19q-10 -10 -10 -13l-1 -1q-2 -2 -2 -14l2 -4v-5q0 -8 2 -10q-2 -2 -2 -6v-4q0 -2 -2 -2q-14 0 -14 -10q4 -4 0 -4q-4 -4 -4 -11q-3 -3 -14 -28l-11 -15l-6 -12l-12 -18 q-13 -30 -35 -52q-32 -58 -47 -75q-10 -14 -27 -31l-18 -19l-8 -12h2q-39 -40 -107 -86l-10 -6q-2 -2 -20 -8q-1 0 -3.5 -1t-3.5 -1q-1 -1 -5 -5.5t-5.5 -5.5t-5 -4t-5.5 -4t-5.5 -2.5t-7.5 -2.5t-9 -1q-18 -9 -32 2v-2l-4 2q4 4 4 11q-6 12 -11 12l-20 6q-2 0 -4 2h-2 q-6 3 -6 10q-3 24 2 37q0 3 4 0l2 -4q6 -3 6 -8q0 -2 2 -4q0 -2 4 -6q4 -16 4 -21q21 -3 41 6q11 5 22.5 13t20 14.5t22 18.5t21.5 18l4 4l6 4q77 65 99 94q5 8 16 22.5t12 16.5l29 39q4 4 16 25l7 10l18 26q39 67 61 154q10 34 13 74q0 3 1 11.5t1 12.5q0 19 -4 47 q-4 20 -4 31q-9 31 -41 31q-16 2 -33 8h-25h-14q-8 0 -10 2q-2 -2 -2 -4t-2 -2h-2q-9 0 -17 -8v2q-4 0 -6 -2q-33 -5 -37 -8h2l-16 -5l-80 -36q-3 -3 -21.5 -12.5t-21.5 -12.5l-16 -10l-64 -45q-5 -5 -16 -15.5t-20 -18t-19 -13.5l-27 -21l-74 -70l-30 -26l-8 -10v2l-7 -6 l-10 -13l-18 -18q-3 -3 -9.5 -8t-9.5 -9q-61 -65 -92 -104l-24 -31l-21 -26q-18 -18 -41 -56l-31 -41q-15 -25 -22 -32q-1 -3 -5 -6.5t-5 -6.5l-7 -10l-16 -16q-3 -15 -6 -15q0 -8 -4 -8q-6 -6 -6 -10t-1 -7l-1 -3q-11 -11 -11 -17l2 2l-8 -12q-6 -6 -6 -8q-3 -12 -12 -27 q0 -1 -2 -4t-2 -4v2l-25 -49l-16 -37q-14 -14 -31 -59l-14 -29l-10 -29v2q-20 -36 -35 -86l-21 -47l-26 -78q0 -3 -2.5 -8t-2.5 -8l-20 -68q0 -3 -1 -7t-1 -7q0 -8 -2 -10q0 -8 -2 -10q-6 -8 -2 -19q0 -12 -2 -14q0 -1 -1 -2t-1 -2v-2q0 -1 1 -5.5t1 -7.5q-4 -4 -4 -6h-2v-2 q6 -14 -2 -14l2 2v12l-11 -12l-2 8h2v6l11 2v-2q4 8 -2 17q-3 0 -5 2l-2 1q-2 1 -6 1l2 -27l-4 -2v-10q-8 -11 -2 -35v-14v-27q-3 -11 0 -20q-6 -6 0 -11q9 -13 6 -16v-16q4 -10 7.5 -11t7.5 4l-2 19l-4 2l2 6q6 -6 6 -14v-10q-2 0 -2 -3l4 -26q11 -66 43 -125v2l4 -6 q45 -45 98 -60q31 -6 82 -6h19q36 2 86 17h-3l19 6q71 23 145 61q7 4 39 22t51 30t37 26l15 12q34 21 112 72l19 14l82 60l20 12q22 22 31 27l18 22l82 62l23 30l39 39v-2l22 23l72 53l65 49l15 6q6 -12 7 -21t-0.5 -15.5t-10 -16t-15 -15.5t-24 -19.5t-29.5 -24.5l-80 -82 l-20 -21q-3 0 -6 -2h-3l-2 -4l-24 -18q-3 -1 -5 -5q-2 -3 -5 -6l-7 -8q-10 -16 -30 -22l-6 -4q-8 0 -11 -9q-9 0 -10.5 -1t-1.5 -5v-2q-14 -3 -6 -14h-2q-4 -12 -4 -14l-6 6l10 8l-4 10q-8 -19 -8 -22l-19 -17q-16 -22 -22 -26q-9 -9 -17 -9l-14 -14l-29 -20l-12 -9l-16 -12 l-25 -20v2q-23 -12 -57 -47v2l-68 -43q-33 -19 -45 -31l-51 -25q-15 -7 -44 -23t-46 -24h2l-37 -12l-14 -6l-19 -6l-78 -23q-1 -12 -6.5 -30t-5.5 -25q0 -6 9 -42t9 -58q0 -78 -90 -78q-45 0 -74.5 17.5t-29.5 47.5q6 27 24 27q2 0 16.5 -10.5t35.5 -20.5t37 -10q18 0 18 37 q0 17 -7 54t-7 52q0 17 4 21q0 4 1 7l1 3q-3 0 -5 1t-5 1h-3v6q-1 0 -4 2.5t-6.5 2t-9.5 -4.5q0 2 -2 4q-8 0 -10 2q-2 0 -4 2v-14q-6 -2 -17 2h15q0 1 1 3t1 3q-19 6 -19 -4l2 -2h-4l-37 8q-3 0 -7 2t-7 2q-59 31 -70 43q-12 14 -22 24t-19 17.5t-14 12.5v-2q-23 23 -41 63 l-8 23l-14 32q-3 3 -3 13q-3 1 -3.5 4t1.5 4q0 4 -4 16q0 3 -1 7.5t-1 7.5l-4 34v41zM10 -43l6 4q0 -2 4 -6l-8 -2q0 2 -2 4zM10 -66l6 3l-4 -3h-2zM12 -10l8 4q0 -7 9 -10l-2 -7l-7 9zM14 -154q4 -35 13 -47l8 2q0 1 -1 6.5t-1 6.5q-2 4 -2 14q0 12 -6 18l-9 -2q0 2 -2 2z M33 33l6 -6q-6 0 -6 6zM129 -381q3 -6 14 -6q0 5 -0.5 7.5t-2 3.5t-2.5 1h-4h-1.5h-1.5v-6h-2zM250 -430l6 6q3 0 9.5 -1t10.5 -1l3 -2q-4 -2 -29 -2zM264 -391v-8q2 0 4 -2q7 -4 17 6l2 -6h10l6 12q-12 0 -14 -2h-25zM334 -379v-2q7 -2 16 -14h2l15 4l34 6q13 8 21 8 q19 3 29 10q45 15 59 25l47 23q2 2 8 6q12 10 11 8l-1 -2l-4 -2q15 0 17 8q6 0 6 4l4 2q6 0 8 2t2 4v-4q1 3 5 6t5 6q8 0 11 7h6q11 -4 14 8l23 14l10 10l2 -2q6 3 6 11q0 -5 10 -5q-2 2 -2 7q0 1 -1 3t-1 3q4 4 11 0l2 2q1 0 2 1t2 1q3 -3 4 -3.5t3.5 1t4.5 2.5l-2 6h8 l8 10q6 6 9 6q12 0 12 6q0 7 8 7q0 2 4 2l12 12l1 1l-1 1l15 8q0 4 2 6v2q4 0 5 1q0 1 1 1q9 8 16 11l4 4q12 0 15 10l10 6q1 0 3 3t6 8t7 8h4q3 0 13 10q0 6 16 0q-3 11 4 18l15 15v-2q9 3 12 14q10 6 2 14l4 4q9 3 18 15q-20 -3 -24 -11l-8 -14q-5 2 -5.5 2t-3 -4t-4.5 -6 v2q-6 -5 -28 -24t-35 -27l-25 -21q-35 -21 -65 -49v2l-4 -2q0 4 -2 6l-4 -4v-4q-1 0 -5.5 -2t-5.5 -2q-4 0 -4 -4q0 -1 -1.5 -2t-3.5 -2t-3 -2l-6 -4v2q-8 0 -8 -11h-4l-25 -12l-8 -6l-15 -10v2q-15 -9 -22 -21q-11 4 -14 -6l-7 -2q-5 -5 -14 -8l-29 -18l-38 -23h-5v2l-2 -2 q-2 -2 -2 -4q-4 -4 -4 -6q-7 3 -12 -2v2q-3 -1 -5 -0.5t-2.5 -1t-0.5 -8.5q-18 -3 -27 -13q-4 0 -8 -4l-2 -2q-3 1 -7.5 -2t-6.5 -4l-7 -2h-2q-1 0 -4 1t-4 1v-8h-8q0 -4 -1 -5t-3 1q-9 -1 -19 -11v2q-2 -2 -4 -2h-2q-10 0 -28 -6q-5 0 -9 -4h-4h-2q-3 -3 -6 -3.5t-8 0.5 t-6 1zM530 -315q4 -4 0 -4v4zM565 -297q3 3 3 2q0 -3 1 -4q-2 0 -4 -2v4zM588 -281l6 5v-5h-6zM625 -258h4v-6h-4v6zM825 696q0 3 6 9v-7zM913 -109l7 -8q-7 0 -7 4v4zM934 -57l4 -2l2 2q4 4 4 16zM969 -8l4 -4q0 2 4 2l4 4l10 4l-4 10l-8 -4q-2 -2 -2 -4v4q-10 -10 -8 -12z M999 -27l2 -2zM1014 1442l2 6q6 0 8 -2q-2 -2 -8 -2zM1025.5 44.5q-1.5 -3.5 0.5 -11.5l10 12l2 2l-4 2q-4 0 -5.5 -0.5t-3 -4zM1042 1450l2 4h17zM1071 86q5 -2 7.5 -2t3 1t0 4.5t-0.5 4.5zM1077 1452l4 8q3 0 7.5 -1t7.5 -1q-12 -4 -15 -4zM1098 1458l2 2q6 2 20 2h31v-8 l-6 4h-10q-17 0 -23 2q-12 0 -14 -2zM1100 107q-1 -1 0.5 -3t7.5 -6q2 0 2 2t2 4l4 5l-4 4q-2 -1 -6.5 -3t-5.5 -3zM1116 115l64 63l-35 -31q-5 -5 -15 -14t-13.5 -13t-0.5 -5zM1204 1403q3 -8 6 -8q6 -2 17 -2q-9 12 -13 12v2zM1223 1376q0 -20 10 -26l6 4v8q-1 2 -3 5.5 t-4 4.5t-9 4zM1235 1341q0 -4 2 -6q0 -2 2 -2l6 4l-2 4h-8zM1239 1329q0 -12 4 -16l8 2v2v1q1 1 1 1.5t-3 3t-10 6.5zM1251 1360v8q-8 -4 0 -8zM1255 1118q0 2 2 2v4q0 2 3 2h2l2 4q0 1 -2 3q0 2 2 4h4l-4 -7q0 -12 -4 -16zM1262 1139l4 4q0 -4 -2 -6zM1264 1165l6 6 q0 -1 -1 -4t-1 -4q6 6 6 13q2 0 2 8q4 1 4 14l8 2q0 -5 -6 -8h4q-9 -7 -6 -16q0 -4 -2 -6t-2 -3q3 -3 -4 -14h2l-8 -10q0 10 2 12v8q0 -2 -2 -2q-2 2 -2 4z" />
<glyph unicode="&#xc8;" horiz-adv-x="1495" d="M125 121q65 304 346 559q-57 0 -135 10q-62 8 -99 47t-26 103q23 123 158 244t331 221q-38 18 -77 49q-57 40 -80 86t-11 110q5 26 26 51t44 25q10 -4 12 -12.5t-6 -14.5q0 -3 -3 -5t-6.5 -3t-4.5 -2q-4 -4 -8.5 -8t-6.5 -5.5t-4.5 -5t-5.5 -9.5q-13 -24 -12.5 -59.5 t16.5 -57.5q30 -49 117 -98q15 -9 47 -23q189 92 391 135q185 38 340 32q184 -6 177 -85q-1 -10 -5 -21q-12 -32 -37 -55.5t-63 -38.5t-64 -22t-67 -15q-357 -66 -598 9q-143 -72 -309 -181q-101 -66 -176 -153q-114 -132 -36 -184q35 -23 111 -27q35 -2 109 -2l33 28 q51 42 116 82.5t138 74.5t129.5 38.5t91.5 -25.5q10 -16 9 -31t-16.5 -31.5t-32 -30t-38 -26.5t-34.5 -19.5l-21 -10.5q-151 -65 -310 -80q-309 -283 -372 -573q-35 -166 40 -246.5t255 -69.5q93 5 207.5 38t215.5 77t224 110.5t205.5 116.5t187.5 117q7 0 16 2 q10 1 10.5 -0.5t-8.5 -11.5q-192 -128 -466 -275q-94 -51 -149.5 -78.5t-136.5 -59.5t-162 -47.5t-173 -19.5q-189 -8 -287.5 83.5t-56.5 273.5zM618 723q117 13 205 49q188 78 172 122q-1 4 -4 7q-14 14 -100 -8q-16 -5 -32.5 -11t-29 -11t-29.5 -15t-26.5 -15t-27.5 -18 t-24.5 -17.5t-27 -20.5t-24.5 -19.5t-26.5 -22t-25.5 -20.5zM852 1282q247 -64 553 2q4 1 19.5 4.5t25.5 6.5t28.5 8t31 10t29 11.5t27.5 13.5t20.5 15.5t14 18t3.5 19.5q-2 12 -10 20t-23.5 13t-26.5 7t-33 5q-301 21 -659 -154zM1008 1769q7 -3 10 3t10 6l10 -1 q9 -1 15 -5l10 -5l41 -12q5 -3 15.5 -17.5t17.5 -21.5q32 -27 27 -59q-5 -22 -23 -17q-16 4 -45.5 41.5t-30.5 38.5q-9 4 -23 15q0 1 1 1q1 1 1 5l-26 6q-11 0 -8 14q2 0 2 2t-4 6z" />
<glyph unicode="&#xc9;" horiz-adv-x="1495" d="M125 121q65 304 346 559q-57 0 -135 10q-62 8 -99 47t-26 103q23 123 158 244t331 221q-38 18 -77 49q-57 40 -80 86t-11 110q5 26 26 51t44 25q10 -4 12 -12.5t-6 -14.5q0 -3 -3 -5t-6.5 -3t-4.5 -2q-4 -4 -8.5 -8t-6.5 -5.5t-4.5 -5t-5.5 -9.5q-13 -24 -12.5 -59.5 t16.5 -57.5q30 -49 117 -98q15 -9 47 -23q189 92 391 135q185 38 340 32q184 -6 177 -85q-1 -10 -5 -21q-12 -32 -37 -55.5t-63 -38.5t-64 -22t-67 -15q-357 -66 -598 9q-143 -72 -309 -181q-101 -66 -176 -153q-114 -132 -36 -184q35 -23 111 -27q35 -2 109 -2l33 28 q51 42 116 82.5t138 74.5t129.5 38.5t91.5 -25.5q10 -16 9 -31t-16.5 -31.5t-32 -30t-38 -26.5t-34.5 -19.5l-21 -10.5q-151 -65 -310 -80q-309 -283 -372 -573q-35 -166 40 -246.5t255 -69.5q93 5 207.5 38t215.5 77t224 110.5t205.5 116.5t187.5 117q7 0 16 2 q10 1 10.5 -0.5t-8.5 -11.5q-192 -128 -466 -275q-94 -51 -149.5 -78.5t-136.5 -59.5t-162 -47.5t-173 -19.5q-189 -8 -287.5 83.5t-56.5 273.5zM618 723q117 13 205 49q188 78 172 122q-1 4 -4 7q-14 14 -100 -8q-16 -5 -32.5 -11t-29 -11t-29.5 -15t-26.5 -15t-27.5 -18 t-24.5 -17.5t-27 -20.5t-24.5 -19.5t-26.5 -22t-25.5 -20.5zM852 1282q247 -64 553 2q4 1 19.5 4.5t25.5 6.5t28.5 8t31 10t29 11.5t27.5 13.5t20.5 15.5t14 18t3.5 19.5q-2 12 -10 20t-23.5 13t-26.5 7t-33 5q-301 21 -659 -154zM1055 1733q3 3 6 9t6 9l18 25l21 28 q6 5 19 19t20 18q15 9 31 0q12 -5 19 -19t3 -26q2 -6 -8 -16l-45 -37q-65 -47 -82 -29q-3 7 -6 15z" />
<glyph unicode="&#xca;" horiz-adv-x="1495" d="M125 121q65 304 346 559q-57 0 -135 10q-62 8 -99 47t-26 103q23 123 158 244t331 221q-38 18 -77 49q-57 40 -80 86t-11 110q5 26 26 51t44 25q10 -4 12 -12.5t-6 -14.5q0 -3 -3 -5t-6.5 -3t-4.5 -2q-4 -4 -8.5 -8t-6.5 -5.5t-4.5 -5t-5.5 -9.5q-13 -24 -12.5 -59.5 t16.5 -57.5q30 -49 117 -98q15 -9 47 -23q189 92 391 135q185 38 340 32q184 -6 177 -85q-1 -10 -5 -21q-12 -32 -37 -55.5t-63 -38.5t-64 -22t-67 -15q-357 -66 -598 9q-143 -72 -309 -181q-101 -66 -176 -153q-114 -132 -36 -184q35 -23 111 -27q35 -2 109 -2l33 28 q51 42 116 82.5t138 74.5t129.5 38.5t91.5 -25.5q10 -16 9 -31t-16.5 -31.5t-32 -30t-38 -26.5t-34.5 -19.5l-21 -10.5q-151 -65 -310 -80q-309 -283 -372 -573q-35 -166 40 -246.5t255 -69.5q93 5 207.5 38t215.5 77t224 110.5t205.5 116.5t187.5 117q7 0 16 2 q10 1 10.5 -0.5t-8.5 -11.5q-192 -128 -466 -275q-94 -51 -149.5 -78.5t-136.5 -59.5t-162 -47.5t-173 -19.5q-189 -8 -287.5 83.5t-56.5 273.5zM618 723q117 13 205 49q188 78 172 122q-1 4 -4 7q-14 14 -100 -8q-16 -5 -32.5 -11t-29 -11t-29.5 -15t-26.5 -15t-27.5 -18 t-24.5 -17.5t-27 -20.5t-24.5 -19.5t-26.5 -22t-25.5 -20.5zM852 1282q247 -64 553 2q4 1 19.5 4.5t25.5 6.5t28.5 8t31 10t29 11.5t27.5 13.5t20.5 15.5t14 18t3.5 19.5q-2 12 -10 20t-23.5 13t-26.5 7t-33 5q-301 21 -659 -154zM1001 1645q0 9 11 16l110 111q12 4 13 4 q6 0 10 -4l104 -111q6 -9 6 -16q0 -15 -6 -15q-8 0 -14 6l-100 82l-107 -82q-12 -4 -14 -4q-13 0 -13 13z" />
<glyph unicode="&#xcb;" horiz-adv-x="1495" d="M125 121q65 304 346 559q-57 0 -135 10q-62 8 -99 47t-26 103q23 123 158 244t331 221q-38 18 -77 49q-57 40 -80 86t-11 110q5 26 26 51t44 25q10 -4 12 -12.5t-6 -14.5q0 -3 -3 -5t-6.5 -3t-4.5 -2q-4 -4 -8.5 -8t-6.5 -5.5t-4.5 -5t-5.5 -9.5q-13 -24 -12.5 -59.5 t16.5 -57.5q30 -49 117 -98q15 -9 47 -23q189 92 391 135q185 38 340 32q184 -6 177 -85q-1 -10 -5 -21q-12 -32 -37 -55.5t-63 -38.5t-64 -22t-67 -15q-357 -66 -598 9q-143 -72 -309 -181q-101 -66 -176 -153q-114 -132 -36 -184q35 -23 111 -27q35 -2 109 -2l33 28 q51 42 116 82.5t138 74.5t129.5 38.5t91.5 -25.5q10 -16 9 -31t-16.5 -31.5t-32 -30t-38 -26.5t-34.5 -19.5l-21 -10.5q-151 -65 -310 -80q-309 -283 -372 -573q-35 -166 40 -246.5t255 -69.5q93 5 207.5 38t215.5 77t224 110.5t205.5 116.5t187.5 117q7 0 16 2 q10 1 10.5 -0.5t-8.5 -11.5q-192 -128 -466 -275q-94 -51 -149.5 -78.5t-136.5 -59.5t-162 -47.5t-173 -19.5q-189 -8 -287.5 83.5t-56.5 273.5zM618 723q117 13 205 49q188 78 172 122q-1 4 -4 7q-14 14 -100 -8q-16 -5 -32.5 -11t-29 -11t-29.5 -15t-26.5 -15t-27.5 -18 t-24.5 -17.5t-27 -20.5t-24.5 -19.5t-26.5 -22t-25.5 -20.5zM852 1282q247 -64 553 2q4 1 19.5 4.5t25.5 6.5t28.5 8t31 10t29 11.5t27.5 13.5t20.5 15.5t14 18t3.5 19.5q-2 12 -10 20t-23.5 13t-26.5 7t-33 5q-301 21 -659 -154zM922 1638q0 56 36 56q18 0 32 -13t14 -30 q0 -56 -39 -56q-19 0 -31 12t-12 31zM1071.5 1639q2.5 17 30.5 36q31 22 45 8q13 -13 15 -31t-11 -32q-33 -42 -64 -14q-18 16 -15.5 33z" />
<glyph unicode="&#xcc;" horiz-adv-x="806" d="M-298 -402.5q-6 11.5 5 19.5q250 123 553 180q28 98 59 186.5t79.5 193.5t75 162t99 187t94 167.5t113.5 197.5q25 45 61 99.5t110.5 162.5t133.5 195q4 4 17 7t29.5 -0.5t23.5 -15.5q-49 -80 -150.5 -226.5t-152.5 -233.5q-15 -26 -79 -136t-82.5 -142t-72 -126.5 t-75 -137.5t-63 -125t-64 -137.5t-50.5 -127.5t-49 -140q72 14 226 29q119 13 209 -12t145 -72l-6.5 -13t-7.5 -13q-70 38 -151 49.5t-191 11.5q-120 0 -234 -18q-7 -20 -8 -29q-7 -28 -30 -23t-23 31q0 4 1 7l1 3q-235 -46 -527 -168q-13 -4 -19 7.5zM-256 1118 q5 14 15.5 14.5t15.5 -12.5q0 -18 23.5 -24t57.5 -1t55 9t34 8q63 20 181 52.5t148 41.5q412 120 490 141q482 127 838 124q49 0 96 -3q228 -11 262 -168q5 -24 -14 -51.5t-41 -13.5q10 38 10 68q0 26 -12 47t-29 34t-46.5 22.5t-52 14t-57.5 7t-52 2.5h-47h-11 q-191 -2 -427 -44t-442 -99t-393 -112.5t-328 -89t-200 -24.5q-28 2 -51 16t-23 41zM1022 1735q7 -3 10 2.5t10 5.5l10 -1q9 -1 15 -5q8 -4 10 -4l41 -13q5 -3 15.5 -17.5t17.5 -21.5q31 -26 27 -58q-4 -22 -23 -17q-16 4 -45.5 41.5t-30.5 38.5q-10 4 -22 14l1 1q1 1 1 5 l-27 6q-11 0 -8 14q2 0 2 3q0 2 -4 6z" />
<glyph unicode="&#xcd;" horiz-adv-x="806" d="M-298 -402.5q-6 11.5 5 19.5q250 123 553 180q28 98 59 186.5t79.5 193.5t75 162t99 187t94 167.5t113.5 197.5q25 45 61 99.5t110.5 162.5t133.5 195q4 4 17 7t29.5 -0.5t23.5 -15.5q-49 -80 -150.5 -226.5t-152.5 -233.5q-15 -26 -79 -136t-82.5 -142t-72 -126.5 t-75 -137.5t-63 -125t-64 -137.5t-50.5 -127.5t-49 -140q72 14 226 29q119 13 209 -12t145 -72l-6.5 -13t-7.5 -13q-70 38 -151 49.5t-191 11.5q-120 0 -234 -18q-7 -20 -8 -29q-7 -28 -30 -23t-23 31q0 4 1 7l1 3q-235 -46 -527 -168q-13 -4 -19 7.5zM-256 1118 q5 14 15.5 14.5t15.5 -12.5q0 -18 23.5 -24t57.5 -1t55 9t34 8q63 20 181 52.5t148 41.5q412 120 490 141q482 127 838 124q49 0 96 -3q228 -11 262 -168q5 -24 -14 -51.5t-41 -13.5q10 38 10 68q0 26 -12 47t-29 34t-46.5 22.5t-52 14t-57.5 7t-52 2.5h-47h-11 q-191 -2 -427 -44t-442 -99t-393 -112.5t-328 -89t-200 -24.5q-28 2 -51 16t-23 41zM1063 1632q3 4 6 10t6 9l19 24l20 29q6 5 19 19t20 18q15 9 31 0q12 -5 19 -19t3 -26q2 -7 -8 -17l-45 -37q-64 -46 -82 -28q-2 5 -5 12z" />
<glyph unicode="&#xce;" horiz-adv-x="806" d="M-298 -402.5q-6 11.5 5 19.5q250 123 553 180q28 98 59 186.5t79.5 193.5t75 162t99 187t94 167.5t113.5 197.5q25 45 61 99.5t110.5 162.5t133.5 195q4 4 17 7t29.5 -0.5t23.5 -15.5q-49 -80 -150.5 -226.5t-152.5 -233.5q-15 -26 -79 -136t-82.5 -142t-72 -126.5 t-75 -137.5t-63 -125t-64 -137.5t-50.5 -127.5t-49 -140q72 14 226 29q119 13 209 -12t145 -72l-6.5 -13t-7.5 -13q-70 38 -151 49.5t-191 11.5q-120 0 -234 -18q-7 -20 -8 -29q-7 -28 -30 -23t-23 31q0 4 1 7l1 3q-235 -46 -527 -168q-13 -4 -19 7.5zM-256 1118 q5 14 15.5 14.5t15.5 -12.5q0 -18 23.5 -24t57.5 -1t55 9t34 8q63 20 181 52.5t148 41.5q412 120 490 141q482 127 838 124q49 0 96 -3q228 -11 262 -168q5 -24 -14 -51.5t-41 -13.5q10 38 10 68q0 26 -12 47t-29 34t-46.5 22.5t-52 14t-57.5 7t-52 2.5h-47h-11 q-191 -2 -427 -44t-442 -99t-393 -112.5t-328 -89t-200 -24.5q-28 2 -51 16t-23 41zM1180 1733q0 9 10 16l110 111q12 4 13 4q6 0 10 -4l104 -111q7 -11 7 -16q0 -15 -7 -15q-8 0 -14 6l-100 82l-107 -82q-12 -4 -14 -4q-12 0 -12 13z" />
<glyph unicode="&#xcf;" horiz-adv-x="806" d="M-298 -402.5q-6 11.5 5 19.5q250 123 553 180q28 98 59 186.5t79.5 193.5t75 162t99 187t94 167.5t113.5 197.5q25 45 61 99.5t110.5 162.5t133.5 195q4 4 17 7t29.5 -0.5t23.5 -15.5q-49 -80 -150.5 -226.5t-152.5 -233.5q-15 -26 -79 -136t-82.5 -142t-72 -126.5 t-75 -137.5t-63 -125t-64 -137.5t-50.5 -127.5t-49 -140q72 14 226 29q119 13 209 -12t145 -72l-6.5 -13t-7.5 -13q-70 38 -151 49.5t-191 11.5q-120 0 -234 -18q-7 -20 -8 -29q-7 -28 -30 -23t-23 31q0 4 1 7l1 3q-235 -46 -527 -168q-13 -4 -19 7.5zM-256 1118 q5 14 15.5 14.5t15.5 -12.5q0 -18 23.5 -24t57.5 -1t55 9t34 8q63 20 181 52.5t148 41.5q412 120 490 141q482 127 838 124q49 0 96 -3q228 -11 262 -168q5 -24 -14 -51.5t-41 -13.5q10 38 10 68q0 26 -12 47t-29 34t-46.5 22.5t-52 14t-57.5 7t-52 2.5h-47h-11 q-191 -2 -427 -44t-442 -99t-393 -112.5t-328 -89t-200 -24.5q-28 2 -51 16t-23 41zM1012 1692q0 55 37 55q17 0 31 -13t14 -30q0 -55 -39 -55q-19 0 -31 12t-12 31zM1178 1659q-36 36 14 70q31 22 45 8q13 -13 15 -31.5t-11 -32.5q-33 -42 -63 -14z" />
<glyph unicode="&#xd1;" horiz-adv-x="1341" d="M-174 -360q2 81 32.5 178.5t87 202t118 202t144.5 208t144.5 189t141 177t112.5 141.5q117 152 238 348q161 258 -107 250q-151 -1 -301.5 -64t-279.5 -167q-50 -39 -97.5 -121.5t-11.5 -122.5q8 -7 8 -15.5t-6.5 -12t-15.5 0.5q-41 19 -51.5 52.5t5 70.5t37 67.5 t46.5 55.5q135 123 305.5 195t357.5 90q203 22 234 -95q4 -35 -3 -74t-14.5 -64.5t-33.5 -70.5t-35 -59.5t-45.5 -66t-40.5 -58.5q-116 -174 -318 -435.5t-291 -395.5q-10 -15 -48 -71.5t-51 -77t-46.5 -72.5t-47.5 -77.5t-39 -71t-35.5 -74.5t-23 -65.5t-16 -67t-0.5 -58.5 q1 -1 1 -5q3 -14 15 -8q17 9 58 56l108 131q243 290 299 352q233 256 322 346q222 222 424 351q63 45 140.5 84t127.5 32q125 -17 33 -233q-41 -109 -141 -302t-136 -280q-44 -98 -26 -176q5 -15 19 -22.5t28 4.5q22 17 21 -7q0 -8 -3 -22q-25 -24 -60.5 -9t-43.5 48 q-12 44 1 110.5t50.5 153t74.5 161t92.5 181t84.5 166.5q5 11 11.5 26.5t14.5 39t12 45.5t4 42t-9.5 32t-28.5 12q-126 0 -416 -232q-138 -110 -287 -260t-249 -265t-250 -296q-24 -27 -131 -168q-95 -124 -140 -146q-45 -23 -67 33q-6 14 -6 54zM1111 1386q0 9 3 23 q0 8 19 33q62 77 120 16q35 -32 61.5 -30t49.5 38q26 24 23 -5q-1 -12 -7 -34q-16 -32 -33.5 -45.5t-39.5 -8.5t-41.5 16.5t-51.5 35.5q-12 11 -24.5 6.5t-24.5 -16t-25 -26.5q-2 -3 -3.5 -5t-3.5 -4q-22 -22 -22 6z" />
<glyph unicode="&#xd2;" horiz-adv-x="1507" d="M77 31.5q-1 62.5 13 130.5q27 99 94 268q40 96 94 196t125 207t151 205t175 186t193.5 153t211 104t222.5 41q89 2 152.5 -42.5t94 -119t42.5 -167.5t3 -189.5t-30.5 -184.5t-52.5 -153q-124 -261 -268 -455t-355 -358q-199 -143 -315 -183q-165 -57 -290 2t-157 209 q-47 0 -74.5 44t-28.5 106.5zM129 39q0 -26 12 -71.5t33 -55.5q-4 12 -4 59q-8 256 156 611q-54 -105 -90 -187q-7 -17 -28.5 -67t-30.5 -74.5t-23 -66t-19.5 -77t-5.5 -71.5zM223 8.5q-1 -38.5 1.5 -85.5t14.5 -86t31.5 -74t54.5 -57t81 -28q108 -14 234 39.5t242 151.5 t229 225t201 261t151.5 259.5t88.5 219.5q13 54 22.5 102.5t18 116.5t8 124.5t-13 115.5t-38 100t-73.5 67.5t-114 28.5q-111 2 -230 -49t-230.5 -142t-210.5 -200t-191 -238q97 97 188 105q34 0 41 -27q6 -24 -13 -33l-7 -2q-99 -17 -157 -60.5t-112 -140.5 q-180 -337 -211 -614q-5 -41 -6 -79.5zM1255 1864q7 -3 10.5 2.5t10.5 5.5q2 -1 5.5 -1t6 -0.5t6 -1.5t6.5 -3q8 -4 11 -4l41 -13q5 -3 14.5 -17t17.5 -22q31 -26 28 -58q-4 -22 -23 -17q-16 4 -45.5 41.5t-30.5 38.5q-12 5 -23 14q0 1 1 1q1 1 1 5l-26 6q-12 0 -9 14 q3 0 3 3q0 1 -5 6z" />
<glyph unicode="&#xd3;" horiz-adv-x="1507" d="M77 31.5q-1 62.5 13 130.5q27 99 94 268q40 96 94 196t125 207t151 205t175 186t193.5 153t211 104t222.5 41q89 2 152.5 -42.5t94 -119t42.5 -167.5t3 -189.5t-30.5 -184.5t-52.5 -153q-124 -261 -268 -455t-355 -358q-199 -143 -315 -183q-165 -57 -290 2t-157 209 q-47 0 -74.5 44t-28.5 106.5zM129 39q0 -26 12 -71.5t33 -55.5q-4 12 -4 59q-8 256 156 611q-54 -105 -90 -187q-7 -17 -28.5 -67t-30.5 -74.5t-23 -66t-19.5 -77t-5.5 -71.5zM223 8.5q-1 -38.5 1.5 -85.5t14.5 -86t31.5 -74t54.5 -57t81 -28q108 -14 234 39.5t242 151.5 t229 225t201 261t151.5 259.5t88.5 219.5q13 54 22.5 102.5t18 116.5t8 124.5t-13 115.5t-38 100t-73.5 67.5t-114 28.5q-111 2 -230 -49t-230.5 -142t-210.5 -200t-191 -238q97 97 188 105q34 0 41 -27q6 -24 -13 -33l-7 -2q-99 -17 -157 -60.5t-112 -140.5 q-180 -337 -211 -614q-5 -41 -6 -79.5zM1354 1681q3 3 6 9.5t6 9.5l18 24l21 29q6 5 19 19t20 18q16 9 31 0q12 -5 19 -19t3 -26q2 -6 -8 -16l-45 -37q-64 -46 -82 -29q-2 5 -5 12z" />
<glyph unicode="&#xd4;" horiz-adv-x="1507" d="M77 31.5q-1 62.5 13 130.5q27 99 94 268q40 96 94 196t125 207t151 205t175 186t193.5 153t211 104t222.5 41q89 2 152.5 -42.5t94 -119t42.5 -167.5t3 -189.5t-30.5 -184.5t-52.5 -153q-124 -261 -268 -455t-355 -358q-199 -143 -315 -183q-165 -57 -290 2t-157 209 q-47 0 -74.5 44t-28.5 106.5zM129 39q0 -26 12 -71.5t33 -55.5q-4 12 -4 59q-8 256 156 611q-54 -105 -90 -187q-7 -17 -28.5 -67t-30.5 -74.5t-23 -66t-19.5 -77t-5.5 -71.5zM223 8.5q-1 -38.5 1.5 -85.5t14.5 -86t31.5 -74t54.5 -57t81 -28q108 -14 234 39.5t242 151.5 t229 225t201 261t151.5 259.5t88.5 219.5q13 54 22.5 102.5t18 116.5t8 124.5t-13 115.5t-38 100t-73.5 67.5t-114 28.5q-111 2 -230 -49t-230.5 -142t-210.5 -200t-191 -238q97 97 188 105q34 0 41 -27q6 -24 -13 -33l-7 -2q-99 -17 -157 -60.5t-112 -140.5 q-180 -337 -211 -614q-5 -41 -6 -79.5zM1212 1714q0 10 11 17l110 110q12 4 13 4q6 0 10 -4l104 -110q6 -9 6 -17q0 -14 -6 -14q-8 0 -14 6l-100 82l-107 -82q-12 -4 -14 -4q-13 0 -13 12z" />
<glyph unicode="&#xd5;" horiz-adv-x="1507" d="M77 31.5q-1 62.5 13 130.5q27 99 94 268q40 96 94 196t125 207t151 205t175 186t193.5 153t211 104t222.5 41q89 2 152.5 -42.5t94 -119t42.5 -167.5t3 -189.5t-30.5 -184.5t-52.5 -153q-124 -261 -268 -455t-355 -358q-199 -143 -315 -183q-165 -57 -290 2t-157 209 q-47 0 -74.5 44t-28.5 106.5zM129 39q0 -26 12 -71.5t33 -55.5q-4 12 -4 59q-8 256 156 611q-54 -105 -90 -187q-7 -17 -28.5 -67t-30.5 -74.5t-23 -66t-19.5 -77t-5.5 -71.5zM223 8.5q-1 -38.5 1.5 -85.5t14.5 -86t31.5 -74t54.5 -57t81 -28q108 -14 234 39.5t242 151.5 t229 225t201 261t151.5 259.5t88.5 219.5q13 54 22.5 102.5t18 116.5t8 124.5t-13 115.5t-38 100t-73.5 67.5t-114 28.5q-111 2 -230 -49t-230.5 -142t-210.5 -200t-191 -238q97 97 188 105q34 0 41 -27q6 -24 -13 -33l-7 -2q-99 -17 -157 -60.5t-112 -140.5 q-180 -337 -211 -614q-5 -41 -6 -79.5zM1291 1791q0 9 3 21q0 8 19 33q63 78 121 17q35 -32 61 -30t49 38q26 24 24 -5q-1 -12 -7 -34q-16 -32 -33.5 -45.5t-39.5 -8.5t-41.5 16.5t-51.5 35.5q-17 14 -34 2.5t-42 -40.5l-3.5 -3.5t-2.5 -3.5q-23 -23 -22 7z" />
<glyph unicode="&#xd6;" horiz-adv-x="1507" d="M77 31.5q-1 62.5 13 130.5q27 99 94 268q40 96 94 196t125 207t151 205t175 186t193.5 153t211 104t222.5 41q89 2 152.5 -42.5t94 -119t42.5 -167.5t3 -189.5t-30.5 -184.5t-52.5 -153q-124 -261 -268 -455t-355 -358q-199 -143 -315 -183q-165 -57 -290 2t-157 209 q-47 0 -74.5 44t-28.5 106.5zM129 39q0 -26 12 -71.5t33 -55.5q-4 12 -4 59q-8 256 156 611q-54 -105 -90 -187q-7 -17 -28.5 -67t-30.5 -74.5t-23 -66t-19.5 -77t-5.5 -71.5zM223 8.5q-1 -38.5 1.5 -85.5t14.5 -86t31.5 -74t54.5 -57t81 -28q108 -14 234 39.5t242 151.5 t229 225t201 261t151.5 259.5t88.5 219.5q13 54 22.5 102.5t18 116.5t8 124.5t-13 115.5t-38 100t-73.5 67.5t-114 28.5q-111 2 -230 -49t-230.5 -142t-210.5 -200t-191 -238q97 97 188 105q34 0 41 -27q6 -24 -13 -33l-7 -2q-99 -17 -157 -60.5t-112 -140.5 q-180 -337 -211 -614q-5 -41 -6 -79.5zM1155 1749q0 55 37 55q17 0 31 -13t14 -30q0 -55 -39 -55q-19 0 -31 12t-12 31zM1321 1716q-36 36 14 70q31 22 45 8q13 -13 15 -31t-11 -32q-33 -42 -63 -15z" />
<glyph unicode="&#xd8;" horiz-adv-x="1507" d="M77 31.5q-1 62.5 13 130.5q27 99 94 268q40 96 94 196t125 207t151 205t175 186t193.5 153t211 104t222.5 41q89 2 152.5 -42.5t94 -119t42.5 -167.5t3 -189.5t-30.5 -184.5t-52.5 -153q-124 -261 -268 -455t-355 -358q-199 -143 -315 -183q-165 -57 -290 2t-157 209 q-47 0 -74.5 44t-28.5 106.5zM129 39q0 -28 12 -72.5t33 -54.5q-4 12 -4 59q-8 256 156 611q-54 -105 -90 -187q-7 -17 -28.5 -67t-30.5 -74.5t-23 -66t-19.5 -77t-5.5 -71.5zM221.5 -10q-0.5 -49 5.5 -102.5t27 -99t55 -71.5q-10 29 4 43q39 46 218 308t369 544.5 t374.5 532.5t243.5 287q-57 54 -156 57q-111 2 -230 -49t-230.5 -142t-210.5 -200t-191 -238q97 97 188 105q34 0 41 -27q6 -24 -13 -33l-7 -2q-99 -17 -157 -60.5t-112 -140.5q-180 -337 -211 -614q-7 -49 -7.5 -98zM354 -309q27 -10 52 -13q108 -14 234 39.5t242 151.5 t229 225t201 261t151.5 259.5t88.5 219.5q17 69 28.5 138t18 154.5t-8.5 161t-52 123.5q-23 -64 -142 -231.5t-186 -239.5q-50 -59 -351.5 -496.5t-319.5 -459.5q-23 -26 -96.5 -151t-88.5 -142z" />
<glyph unicode="&#xd9;" horiz-adv-x="1136" d="M-227 -145q12 76 62.5 185.5t140 251.5t163.5 252.5t193.5 280.5t169.5 244q2 2 31 42.5t39 55t37 54t40 63t30.5 57t27 60.5t12.5 51q6 38 -15 57t-55 19t-105.5 -28.5t-148.5 -73.5t-134.5 -113t-57.5 -135q0 -40 22.5 -65.5t67.5 -25.5q12 -3 12 -14q0 -13 -14 -16 q-60 0 -98.5 33t-38.5 81q0 53 29 105t75.5 92.5t103 75.5t112 57.5t102 35.5t73.5 13q49 0 87 -26.5t38 -79.5q0 -49 -25.5 -113.5t-47.5 -101.5t-58 -94q-51 -77 -268 -392.5t-322 -492.5q-9 -15 -49 -79.5t-57 -96t-44 -86.5t-38.5 -100.5t-11.5 -88.5q0 -28 1 -43.5 t7 -39t17 -35.5t33.5 -21.5t55.5 -9.5q46 0 103.5 21t94 42t87.5 54q294 188 620 534q117 323 297 563q31 44 92 100t99 56q35 0 35 -49q0 -30 -13 -67t-28 -66t-44.5 -70t-46 -61.5t-49.5 -59.5t-38 -45q-136 -165 -236 -272q-25 -64 -53 -162q-11 -29 -24 -92.5 t-13 -114.5q0 -92 49 -92q4 0 20.5 11t20.5 11q18 -8 3 -30q-15 -23 -44 -23q-45 0 -73.5 35t-28.5 82q0 117 32 211l19 65q-269 -287 -578 -489q-69 -45 -158 -83t-165 -38q-84 0 -135 73t-39 161zM977 416l80 92q63 71 103.5 119.5t96 120.5t84.5 129.5t29 95.5 q0 14 -8 14q-58 0 -154 -153q-140 -215 -231 -418zM1100 1501q7 -3 10 2.5t10 5.5l10 -1q9 -1 15 -5q8 -4 10 -4l41 -12q5 -3 15.5 -17t17.5 -22q32 -27 27 -59q-5 -22 -23 -17q-16 4 -45.5 41.5t-30.5 38.5q-10 4 -22 14l1 2q1 2 1 5l-27 6q-11 0 -8 14q2 0 2 2t-4 6z" />
<glyph unicode="&#xda;" horiz-adv-x="1136" d="M-227 -145q12 76 62.5 185.5t140 251.5t163.5 252.5t193.5 280.5t169.5 244q2 2 31 42.5t39 55t37 54t40 63t30.5 57t27 60.5t12.5 51q6 38 -15 57t-55 19t-105.5 -28.5t-148.5 -73.5t-134.5 -113t-57.5 -135q0 -40 22.5 -65.5t67.5 -25.5q12 -3 12 -14q0 -13 -14 -16 q-60 0 -98.5 33t-38.5 81q0 53 29 105t75.5 92.5t103 75.5t112 57.5t102 35.5t73.5 13q49 0 87 -26.5t38 -79.5q0 -49 -25.5 -113.5t-47.5 -101.5t-58 -94q-51 -77 -268 -392.5t-322 -492.5q-9 -15 -49 -79.5t-57 -96t-44 -86.5t-38.5 -100.5t-11.5 -88.5q0 -28 1 -43.5 t7 -39t17 -35.5t33.5 -21.5t55.5 -9.5q46 0 103.5 21t94 42t87.5 54q294 188 620 534q117 323 297 563q31 44 92 100t99 56q35 0 35 -49q0 -30 -13 -67t-28 -66t-44.5 -70t-46 -61.5t-49.5 -59.5t-38 -45q-136 -165 -236 -272q-25 -64 -53 -162q-11 -29 -24 -92.5 t-13 -114.5q0 -92 49 -92q4 0 20.5 11t20.5 11q18 -8 3 -30q-15 -23 -44 -23q-45 0 -73.5 35t-28.5 82q0 117 32 211l19 65q-269 -287 -578 -489q-69 -45 -158 -83t-165 -38q-84 0 -135 73t-39 161zM977 416l80 92q63 71 103.5 119.5t96 120.5t84.5 129.5t29 95.5 q0 14 -8 14q-58 0 -154 -153q-140 -215 -231 -418zM1079 1317l6 9t7 9l18 25l20 29q6 5 19 18.5t20 17.5q16 9 31 0q12 -5 19.5 -19t3.5 -26q2 -5 -9 -16l-45 -37q-65 -47 -82 -29q-3 7 -6 15z" />
<glyph unicode="&#xdb;" horiz-adv-x="1136" d="M-227 -145q12 76 62.5 185.5t140 251.5t163.5 252.5t193.5 280.5t169.5 244q2 2 31 42.5t39 55t37 54t40 63t30.5 57t27 60.5t12.5 51q6 38 -15 57t-55 19t-105.5 -28.5t-148.5 -73.5t-134.5 -113t-57.5 -135q0 -40 22.5 -65.5t67.5 -25.5q12 -3 12 -14q0 -13 -14 -16 q-60 0 -98.5 33t-38.5 81q0 53 29 105t75.5 92.5t103 75.5t112 57.5t102 35.5t73.5 13q49 0 87 -26.5t38 -79.5q0 -49 -25.5 -113.5t-47.5 -101.5t-58 -94q-51 -77 -268 -392.5t-322 -492.5q-9 -15 -49 -79.5t-57 -96t-44 -86.5t-38.5 -100.5t-11.5 -88.5q0 -28 1 -43.5 t7 -39t17 -35.5t33.5 -21.5t55.5 -9.5q46 0 103.5 21t94 42t87.5 54q294 188 620 534q117 323 297 563q31 44 92 100t99 56q35 0 35 -49q0 -30 -13 -67t-28 -66t-44.5 -70t-46 -61.5t-49.5 -59.5t-38 -45q-136 -165 -236 -272q-25 -64 -53 -162q-11 -29 -24 -92.5 t-13 -114.5q0 -92 49 -92q4 0 20.5 11t20.5 11q18 -8 3 -30q-15 -23 -44 -23q-45 0 -73.5 35t-28.5 82q0 117 32 211l19 65q-269 -287 -578 -489q-69 -45 -158 -83t-165 -38q-84 0 -135 73t-39 161zM977 416l80 92q63 71 103.5 119.5t96 120.5t84.5 129.5t29 95.5 q0 14 -8 14q-58 0 -154 -153q-140 -215 -231 -418zM979 1485q0 9 10 16l111 111l12 4q6 0 10 -4l105 -111q6 -9 6 -16q0 -15 -6 -15q-8 0 -15 7l-100 82l-106 -82q-12 -4 -15 -4q-12 0 -12 12z" />
<glyph unicode="&#xdc;" horiz-adv-x="1136" d="M-227 -145q12 76 62.5 185.5t140 251.5t163.5 252.5t193.5 280.5t169.5 244q2 2 31 42.5t39 55t37 54t40 63t30.5 57t27 60.5t12.5 51q6 38 -15 57t-55 19t-105.5 -28.5t-148.5 -73.5t-134.5 -113t-57.5 -135q0 -40 22.5 -65.5t67.5 -25.5q12 -3 12 -14q0 -13 -14 -16 q-60 0 -98.5 33t-38.5 81q0 53 29 105t75.5 92.5t103 75.5t112 57.5t102 35.5t73.5 13q49 0 87 -26.5t38 -79.5q0 -49 -25.5 -113.5t-47.5 -101.5t-58 -94q-51 -77 -268 -392.5t-322 -492.5q-9 -15 -49 -79.5t-57 -96t-44 -86.5t-38.5 -100.5t-11.5 -88.5q0 -28 1 -43.5 t7 -39t17 -35.5t33.5 -21.5t55.5 -9.5q46 0 103.5 21t94 42t87.5 54q294 188 620 534q117 323 297 563q31 44 92 100t99 56q35 0 35 -49q0 -30 -13 -67t-28 -66t-44.5 -70t-46 -61.5t-49.5 -59.5t-38 -45q-136 -165 -236 -272q-25 -64 -53 -162q-11 -29 -24 -92.5 t-13 -114.5q0 -92 49 -92q4 0 20.5 11t20.5 11q18 -8 3 -30q-15 -23 -44 -23q-45 0 -73.5 35t-28.5 82q0 117 32 211l19 65q-269 -287 -578 -489q-69 -45 -158 -83t-165 -38q-84 0 -135 73t-39 161zM920 1374q0 56 36 56q17 0 31 -13.5t14 -30.5q0 -26 -7 -40.5t-31 -14.5 q-19 0 -31 12t-12 31zM977 416l80 92q63 71 103.5 119.5t96 120.5t84.5 129.5t29 95.5q0 14 -8 14q-58 0 -154 -153q-140 -215 -231 -418zM1069.5 1374.5q2.5 17.5 30.5 36.5q31 22 45 8q13 -13 15 -31t-11 -32q-34 -43 -64 -15q-18 16 -15.5 33.5z" />
<glyph unicode="&#xdf;" horiz-adv-x="1323" d="M-100 -594q-36 116 82 438q125 324 326 633.5t444 544.5q53 51 121 104.5t155.5 107.5t167 86.5t154.5 31t120 -48.5q24 -26 25.5 -61.5t-17.5 -75.5t-51 -84.5t-76.5 -90t-92.5 -90.5t-101 -88.5t-100.5 -81t-92.5 -70.5t-74 -55q-39 -29 -50 -37q-62 -46 -138 -108 t-104 -92q116 19 166 16q39 0 83 -5t96 -15.5t97 -30.5t80.5 -46.5t52 -67t7.5 -89.5q-14 -63 -70.5 -123t-136.5 -105.5t-148 -75.5t-135 -52q-29 -10 -88 -24t-136.5 -26.5t-143.5 -5.5t-86 39q-24 33 -27 41q-16 28 11 36q26 8 46 -10q8 -8 10 -18q1 -3 3 -9.5t3.5 -9.5 t4 -7.5t5.5 -7t7 -4.5q47 -17 115 -15t129 12t106 25q56 19 107 39.5t127 58.5t130 76.5t95 92t43 106.5q2 49 -43.5 87.5t-112 59t-127.5 31t-104 10.5q-27 1 -79.5 -2t-84.5 -4q-33 -1 -34.5 13t14.5 28q62 64 168 148.5t199 153.5t199.5 162.5t176.5 178.5 q168 205 121 258q-33 33 -123 12q-134 -48 -262 -128t-234.5 -175.5t-207.5 -214.5t-181.5 -237t-156 -251.5t-131 -249t-107.5 -237.5q-1 -3 -12.5 -32t-16.5 -42t-17 -45t-18 -51.5t-15 -50t-13 -52.5t-7 -46.5t-1.5 -44.5t6.5 -35q4 -13 -15 -16q-24 -3 -31 12q-1 1 -1 2 z" />
<glyph unicode="&#xe0;" horiz-adv-x="669" d="M2 186q0 30 27 58q96 109 159 35q0 -3 -1.5 -4.5t-3.5 -2.5t-3 -2q-3 -1 -5.5 0t-5.5 3t-5 3q-36 6 -68 -26q-24 -17 -42 -47q-14 -24 2 -23q7 1 20 6l53 35q62 46 84 68q7 3 20 2t25.5 -5.5t11.5 -9.5q-78 -166 84 -153q153 17 365 156l12 -17q-19 -14 -39 -25.5 t-54 -29t-42 -21.5q-24 -11 -45 -20t-59 -24.5t-69 -23.5t-69 -15.5t-65.5 -3.5t-50.5 15.5t-33.5 39.5t-5.5 69v13q-12 -8 -51.5 -34.5t-61.5 -39.5q-38 -21 -61 -13.5t-23 37.5zM49 575q7 -3 10.5 3t10.5 6q2 -1 5.5 -1t6 -0.5t6 -1.5t6.5 -3l10 -5l41 -12q5 -3 15 -17 t18 -22q32 -27 27 -59q-5 -22 -23 -17q-16 4 -45.5 41.5t-30.5 38.5q-7 3 -22 15q0 1 1 1q1 1 1 5l-27 6q-11 0 -8 14q2 0 2 2t-4 6z" />
<glyph unicode="&#xe1;" horiz-adv-x="669" d="M2 186q0 30 27 58q96 109 159 35q0 -3 -1.5 -4.5t-3.5 -2.5t-3 -2q-3 -1 -5.5 0t-5.5 3t-5 3q-36 6 -68 -26q-24 -17 -42 -47q-14 -24 2 -23q7 1 20 6l53 35q62 46 84 68q7 3 20 2t25.5 -5.5t11.5 -9.5q-78 -166 84 -153q153 17 365 156l12 -17q-19 -14 -39 -25.5 t-54 -29t-42 -21.5q-24 -11 -45 -20t-59 -24.5t-69 -23.5t-69 -15.5t-65.5 -3.5t-50.5 15.5t-33.5 39.5t-5.5 69v13q-12 -8 -51.5 -34.5t-61.5 -39.5q-38 -21 -61 -13.5t-23 37.5zM119 451q3 3 6 9t6 9l19 25l20 28q6 5 19 19t20 18q15 9 31 0q12 -5 19 -19t3 -26 q2 -6 -8 -16l-45 -37q-67 -44 -82 -29q-3 7 -6 15z" />
<glyph unicode="&#xe2;" horiz-adv-x="669" d="M2 186q0 30 27 58q96 109 159 35q0 -3 -1.5 -4.5t-3.5 -2.5t-3 -2q-3 -1 -5.5 0t-5.5 3t-5 3q-36 6 -68 -26q-24 -17 -42 -47q-14 -24 2 -23q7 1 20 6l53 35q62 46 84 68q7 3 20 2t25.5 -5.5t11.5 -9.5q-78 -166 84 -153q153 17 365 156l12 -17q-19 -14 -39 -25.5 t-54 -29t-42 -21.5q-24 -11 -45 -20t-59 -24.5t-69 -23.5t-69 -15.5t-65.5 -3.5t-50.5 15.5t-33.5 39.5t-5.5 69v13q-12 -8 -51.5 -34.5t-61.5 -39.5q-38 -21 -61 -13.5t-23 37.5zM43 496q0 9 10 16l111 111l12 4q6 0 10 -4l105 -111q6 -9 6 -16q0 -15 -6 -15q-9 0 -15 6 l-100 82l-106 -82q-12 -4 -15 -4q-12 0 -12 13z" />
<glyph unicode="&#xe3;" horiz-adv-x="669" d="M2 186q0 30 27 58q96 109 159 35q0 -3 -1.5 -4.5t-3.5 -2.5t-3 -2q-3 -1 -5.5 0t-5.5 3t-5 3q-36 6 -68 -26q-24 -17 -42 -47q-14 -24 2 -23q7 1 20 6l53 35q62 46 84 68q7 3 20 2t25.5 -5.5t11.5 -9.5q-78 -166 84 -153q153 17 365 156l12 -17q-19 -14 -39 -25.5 t-54 -29t-42 -21.5q-24 -11 -45 -20t-59 -24.5t-69 -23.5t-69 -15.5t-65.5 -3.5t-50.5 15.5t-33.5 39.5t-5.5 69v13q-12 -8 -51.5 -34.5t-61.5 -39.5q-38 -21 -61 -13.5t-23 37.5zM15 530l3 23q0 8 19 33q62 78 121 16q35 -32 61 -30t49 38q26 24 24 -5l-7 -34 q-16 -32 -33.5 -45.5t-39.5 -8.5t-41.5 16.5t-51.5 35.5q-17 14 -34 2.5t-42 -40.5q-4 -5 -6 -7q-22 -22 -22 6z" />
<glyph unicode="&#xe4;" horiz-adv-x="669" d="M2 186q0 30 27 58q96 109 159 35q0 -3 -1.5 -4.5t-3.5 -2.5t-3 -2q-3 -1 -5.5 0t-5.5 3t-5 3q-36 6 -68 -26q-24 -17 -42 -47q-14 -24 2 -23q7 1 20 6l53 35q62 46 84 68q7 3 20 2t25.5 -5.5t11.5 -9.5q0 -2 -2 -2h2h-2q-23 -47 -24.5 -81.5t25.5 -54.5t85 -15 q153 17 365 156l12 -17q-19 -14 -39 -25.5t-54 -29t-42 -21.5q-24 -11 -45 -20t-59 -24.5t-69 -23.5t-69 -15.5t-65.5 -3.5t-50.5 15.5t-33.5 39.5t-5.5 69v13q-12 -8 -51.5 -34.5t-61.5 -39.5q-38 -21 -61 -13.5t-23 37.5zM66 543q0 55 36 55q17 0 31 -13t14 -30 q0 -26 -7 -40.5t-31 -14.5q-19 0 -31 12t-12 31zM215.5 543.5q2.5 17.5 30.5 36.5q31 22 45 8q13 -13 15 -31.5t-11 -32.5q-33 -42 -64 -14q-18 16 -15.5 33.5z" />
<glyph unicode="&#xe5;" horiz-adv-x="669" d="M2 186q0 30 27 58q96 109 159 35q0 -3 -1.5 -4.5t-3.5 -2.5t-3 -2q-3 -1 -5.5 0t-5.5 3t-5 3q-36 6 -68 -26q-24 -17 -42 -47q-14 -24 2 -23q7 1 20 6l53 35q62 46 84 68q7 3 20 2t25.5 -5.5t11.5 -9.5q0 -2 -2 -2h2h-2q-23 -47 -24.5 -81.5t25.5 -54.5t85 -15 q153 17 365 156l12 -17q-19 -14 -39 -25.5t-54 -29t-42 -21.5q-24 -11 -45 -20t-59 -24.5t-69 -23.5t-69 -15.5t-65.5 -3.5t-50.5 15.5t-33.5 39.5t-5.5 69v13q-12 -8 -51.5 -34.5t-61.5 -39.5q-38 -21 -61 -13.5t-23 37.5zM96 549q-11 34 15 67t69 33q30 0 48.5 -18.5 t25.5 -44.5q5 -33 -17.5 -64t-66.5 -30q-30 0 -49.5 17t-24.5 40zM143 543q0 -9 6.5 -18t16.5 -9q28 0 39.5 23t11.5 49q-1 1 -5.5 8t-7.5 10.5t-8.5 7.5t-11.5 4q-41 0 -41 -75z" />
<glyph unicode="&#xe6;" horiz-adv-x="823" d="M10 209q25 58 92 94q15 7 30 5t25.5 -8t18 -12.5t8.5 -6.5q2 0 10.5 12t16.5 12q28 0 22 -29q10 21 66 72q31 23 54 27t34.5 -6.5t17 -26.5t4.5 -32t-6 -23q-22 -31 -57 -56t-56.5 -34t-25.5 -9q-10 -10 -11.5 -28.5t27.5 -40.5t80 -29q78 -11 209 30.5t211 96.5 q59 40 94 53q16 7 19 4q2 -2 -12 -14q-39 -30 -148 -92q-118 -67 -231 -86t-187 -8q-33 4 -58.5 17t-32 20t-25.5 30q-11 20 -9.5 58.5t7.5 48.5q-17 -17 -71.5 -61t-76.5 -52q-27 -11 -37.5 17t-1.5 57zM57 174q7 -4 34 15t54 42.5t29 24.5q-6 2 -14 4.5t-29 5.5t-27 -6 q-13 -8 -26.5 -28t-20 -38t-0.5 -20zM250 207q4 -4 47 19.5t57 37.5q8 8 14.5 17.5t12 21t0 20.5t-24.5 11q-13 3 -39.5 -29t-47.5 -65t-19 -33z" />
<glyph unicode="&#xe7;" horiz-adv-x="628" d="M12 -74q7 19 23 19q2 0 14 -6.5t29.5 -13.5t32.5 -7q16 0 16 25q0 11 -6 35t-6 36q0 9 4 13l6 18q-2 0 -4 2q-45 8 -72 51q-18 25 -29 45l-6 23q-3 33 2 51q9 38 29 72q4 12 29 47q26 33 59 59q42 30 84 33h27q15 0 30 -12q20 -9 50 -39q6 -7 10 -17q0 -4 -2 -4v2h-2 l2 -2q0 -3 -6 0q-3 0 -7 4v-6l-2 2q-24 19 -55 29q-3 -1 -4 -3.5t-4 -2.5q-27 7 -47 -8q-37 -17 -82 -78q-8 -9 -37 -57q-14 -33 -14 -48q0 -20 -6 -34q5 -37 16 -48q4 -7 18 -10l2 2q0 -2 -2 -2q20 -10 52 -10q3 0 5 -3.5t5 -4.5q19 11 29 4q3 0 6 2q1 1 2 0q6 -1 20.5 2.5 t20.5 -0.5q1 0 2 1t2 1q3 3 12 0q4 0 6 2q4 4 10.5 5.5t14 1.5t10.5 1q2 1 8 1.5t10 1.5t7 5q4 -1 7 2l3 3q4 -1 6 -0.5t3.5 1.5t2.5 1q13 5 34 13.5t26 10.5q72 24 153 70l14 6t19.5 9t15.5 7q20 9 29 13.5t22.5 9.5t16 4t1.5 -5.5t-14 -17t-36 -32.5l-41 -29v-4h-2v-2 q-3 0 -6.5 -2t-6.5 -2q-42 -25 -86 -39q-43 -19 -61 -25q-1 0 -9.5 -3t-13.5 -3q-4 0 -10.5 -3.5t-9.5 -4.5q-2 -1 -5.5 -1t-5.5 -1t-3 -4q-4 -2 -15 -2q-3 -3 -12 -4t-12 -4l-2 2q-12 -4 -19 -2l-3 -3q-3 -3 -7 -2q-24 -8 -78 -18q-16 -2 -43 -2q0 -7 -5 -21.5t-5 -19.5 q0 -6 8 -30t8 -38q0 -51 -78 -51q-42 0 -67 11.5t-25 31.5zM190 78l3 2q-3 0 -3 -2zM203 80l2 -2v2h-2zM260 92q1 0 2 -1t2 -1q-2 2 -4 2zM266 379h2v-2zM313 365q0 -3 2 -3zM319 354h3v-2zM322 109q2 0 2 -3q0 1 -2 3zM326 70q0 2 2 4q-2 -2 -2 -4z" />
<glyph unicode="&#xe8;" horiz-adv-x="647" d="M5 167q-16 67 35 145q47 72 107 86q30 7 56 -5q16 -15 19 -31t-7 -31.5t-26 -30.5t-39 -29t-44 -24.5t-43 -19.5q-25 -71 41 -96q58 -21 136 -13t167.5 38.5t162 65t120.5 65.5q12 4 15 4.5t6.5 -3.5t-2.5 -18q-145 -85 -246 -123q-64 -22 -101 -33t-96.5 -22t-113.5 -10 q-126 0 -147 85zM35 645q7 -3 10 2.5t10 5.5l9 -1q10 -1 16 -5q8 -4 10 -4l41 -12q5 -3 15.5 -17t17.5 -22q32 -27 27 -59q-5 -22 -23 -17q-16 4 -45.5 41.5t-30.5 38.5q-10 4 -22 14l1 1q1 1 1 5l-27 7q-11 0 -8 14q2 0 2 2t-4 6zM72 250q153 69 114 119q-6 7 -26.5 -6.5 t-44.5 -40.5q-31 -40 -43 -72z" />
<glyph unicode="&#xe9;" horiz-adv-x="647" d="M5 167q-16 67 35 145q47 72 107 86q30 7 56 -5q16 -15 19 -31t-7 -31.5t-26 -30.5t-39 -29t-44 -24.5t-43 -19.5q-25 -71 41 -96q58 -21 136 -13t167.5 38.5t162 65t120.5 65.5q12 4 15 4.5t6.5 -3.5t-2.5 -18q-145 -85 -246 -123q-64 -22 -101 -33t-96.5 -22t-113.5 -10 q-126 0 -147 85zM72 250q153 69 114 119q-6 7 -26.5 -6.5t-44.5 -40.5q-31 -40 -43 -72zM152 504q2 3 5.5 9t6.5 9l18 25l21 28q6 5 19 19t20 18q15 9 30 0q12 -5 19.5 -19t3.5 -26q2 -6 -8 -16l-45 -37q-67 -44 -82 -29q-3 7 -6 15z" />
<glyph unicode="&#xea;" horiz-adv-x="647" d="M5 167q-16 67 35 145q47 72 107 86q30 7 56 -5q16 -15 19 -31t-7 -31.5t-26 -30.5t-39 -29t-44 -24.5t-43 -19.5q-25 -71 41 -96q58 -21 136 -13t167.5 38.5t162 65t120.5 65.5q12 4 15 4.5t6.5 -3.5t-2.5 -18q-145 -85 -246 -123q-64 -22 -101 -33t-96.5 -22t-113.5 -10 q-126 0 -147 85zM20 506q0 9 11 16l110 111q12 4 13 4q6 0 10 -4l104 -111q6 -9 6 -16q0 -14 -6 -14q-8 0 -14 6l-100 82l-107 -82q-12 -4 -14 -4q-13 0 -13 12zM72 250q153 69 114 119q-6 7 -26.5 -6.5t-44.5 -40.5q-31 -40 -43 -72z" />
<glyph unicode="&#xeb;" horiz-adv-x="647" d="M5 167q-16 67 35 145q47 72 107 86q30 7 56 -5q16 -15 19 -31t-7 -31.5t-26 -30.5t-39 -29t-44 -24.5t-43 -19.5q-25 -71 41 -96q58 -21 136 -13t167.5 38.5t162 65t120.5 65.5q12 4 15 4.5t6.5 -3.5t-2.5 -18q-145 -85 -246 -123q-64 -22 -101 -33t-96.5 -22t-113.5 -10 q-126 0 -147 85zM66 549q0 55 36 55q17 0 31 -13t14 -30q0 -26 -7 -40.5t-31 -14.5q-19 0 -31 12t-12 31zM72 250q153 69 114 119q-6 7 -26.5 -6.5t-44.5 -40.5q-31 -40 -43 -72zM215.5 549.5q2.5 17.5 30.5 36.5q31 22 45 8q13 -13 15 -31.5t-11 -32.5q-33 -42 -64 -14 q-18 16 -15.5 33.5z" />
<glyph unicode="&#xec;" horiz-adv-x="477" d="M-4 121q-2 25 18 86q19 42 47 84q3 4 15.5 21.5t21.5 23.5l11 10q3 6 7.5 10.5t12 9.5l10.5 7q2 2 4 0q3 0 3.5 3.5t3.5 -1.5q0 -2 2 -2t4 2h6l4 -4q-2 -2 0 -4q3 -3 8 -3.5t8 -3.5q0 -1 13 -4h2q-2 0 -2 -2t-2 -2q-18 -7 -27 -16q-9 -6 -12 -14q-9 -9 -17 -13 q-8 -3 -8 -8q0 -4 -0.5 -5t-3 -3t-4.5 -4h-2q0 -2 2 -4q1 -3 0 -3.5t-3 0.5h-1.5t-1.5 -1t-1 -3.5t-1 -3.5q-6 -6 -11 -13.5t-9.5 -17.5t-6.5 -14q-6 -3 -6 -6q4 -6 -1 -7q-2 0 -3 -1v-8q-2 -2 -2 -10q0 -1 -2.5 -3t-3.5 -3.5t2 -2.5q-4 -4 -4 -10q-14 -56 -13 -74v-10 q0 -5 -0.5 -10t-0.5 -7.5t0.5 -5.5t2 -4t5.5 -2t10 -2q36 -3 80 7l88 24q23 13 64.5 38t57.5 34q8 6 28 19.5t32 23.5q28 16 43 31q3 0 6.5 2.5t5.5 3.5q2 2 4.5 5.5t5 5.5t7.5 3q0 3 1.5 4.5t5 3.5t5.5 4q3 3 9 5.5t9 5.5q8 8 17 10v-8h-13l-2 -13v-2h-4l-4 -10l-6 -4v-2 l-2 -2h-2l-4 -6l-6 -6l-21 -19h2q-32 -18 -45 -33l-8 -6q-1 0 -1.5 -1.5t-2 -3.5t-4.5 -3q0 -4 -6 -6l-7 -2q0 -6 -2 -8t-2 -6v-2q-1 0 -7.5 3t-8 3t-4.5 -2q0 -2 -2 -2l-2 -2v2q-6 0 -6 4q-7 0 -7 -4h3q0 -3 2 -5q-2 -2 -2 -4h-3v9q-2 0 -2 -5v-2q0 -2 2 -2q-1 0 -2 -2 t-2 -2q2 -2 7 -2q-3 -4 -7 -7t-9.5 -6t-8.5 -5q-9 -5 -34 -20t-40 -23q-16 -10 -32 -17t-41 -14.5t-35 -11.5q-10 -6 -60 -10q-45 -9 -71 30q-3 3 -6.5 8.5t-6.5 8.5q-18 15 -18 51zM121 285v4h4q0 -4 -4 -4zM150 326q0 -2 2 -4q0 4 -2 4zM156 575q7 -3 10 3t10 6l10 -1 q9 -1 15 -5l10 -5l41 -12q5 -3 15.5 -17t17.5 -22q32 -27 27 -59q-5 -22 -23 -17q-16 4 -45.5 41.5t-30.5 38.5q-9 4 -23 15q0 1 1 1q2 1 2 5l-27 6q-11 0 -8 14q2 0 2 2t-4 6zM166 367v2h4zM334 131l2 2v4q-7 -3 -2 -6zM344 137q3 -6 6 0h-6zM348 141q2 0 2 2q-4 0 -2 -2z M354 141q2 0 0 2v-2zM365 137q0 3 8 6q0 -6 -8 -6zM375 150l2 -3q-2 1 -2 3zM389 156q4 4 0 4v-4zM401 162v2v-2zM401 164q0 1 1 4t1 4v4q-2 -2 -2 -6v-6zM403 176q1 0 3 2q-3 0 -3 -2zM406 178h4v2q-4 0 -4 -2zM426 195q2 2 2 4q-2 0 -2 -4zM428 199q6 -6 12 6h-4 q-5 3 -8 -6zM440 207q4 0 6 2q0 2 -4 6q1 -4 -1 -6q-1 -1 -1 -2z" />
<glyph unicode="&#xed;" horiz-adv-x="477" d="M-4 121q-2 25 18 86q19 42 47 84q3 4 15.5 21.5t21.5 23.5l11 10q3 6 7.5 10.5t12 9.5l10.5 7q2 2 4 0q3 0 3.5 3.5t3.5 -1.5q0 -2 2 -2t4 2h6l4 -4q-2 -2 0 -4q3 -3 8 -3.5t8 -3.5q0 -1 13 -4h2q-2 0 -2 -2t-2 -2q-18 -7 -27 -16q-9 -6 -12 -14q-9 -9 -17 -13 q-8 -3 -8 -8q0 -4 -0.5 -5t-3 -3t-4.5 -4h-2q0 -2 2 -4q1 -3 0 -3.5t-3 0.5h-1.5t-1.5 -1t-1 -3.5t-1 -3.5q-6 -6 -11 -13.5t-9.5 -17.5t-6.5 -14q-6 -3 -6 -6q4 -6 -1 -7q-2 0 -3 -1v-8q-2 -2 -2 -10q0 -1 -2.5 -3t-3.5 -3.5t2 -2.5q-4 -4 -4 -10q-14 -56 -13 -74v-10 q0 -5 -0.5 -10t-0.5 -7.5t0.5 -5.5t2 -4t5.5 -2t10 -2q36 -3 80 7l88 24q23 13 64.5 38t57.5 34q8 6 28 19.5t32 23.5q28 16 43 31q3 0 6.5 2.5t5.5 3.5q2 2 4.5 5.5t5 5.5t7.5 3q0 3 1.5 4.5t5 3.5t5.5 4q3 3 9 5.5t9 5.5q8 8 17 10v-8h-13l-2 -13v-2h-4l-4 -10l-6 -4v-2 l-2 -2h-2l-4 -6l-6 -6l-21 -19h2q-32 -18 -45 -33l-8 -6q-1 0 -1.5 -1.5t-2 -3.5t-4.5 -3q0 -4 -6 -6l-7 -2q0 -6 -2 -8t-2 -6v-2q-1 0 -7.5 3t-8 3t-4.5 -2q0 -2 -2 -2l-2 -2v2q-6 0 -6 4q-7 0 -7 -4h3q0 -3 2 -5q-2 -2 -2 -4h-3v9q-2 0 -2 -5v-2q0 -2 2 -2q-1 0 -2 -2 t-2 -2q2 -2 7 -2q-3 -4 -7 -7t-9.5 -6t-8.5 -5q-9 -5 -34 -20t-40 -23q-16 -10 -32 -17t-41 -14.5t-35 -11.5q-10 -6 -60 -10q-45 -9 -71 30q-3 3 -6.5 8.5t-6.5 8.5q-18 15 -18 51zM121 285v4h4q0 -4 -4 -4zM150 326q0 -2 2 -4q0 4 -2 4zM164 451q2 3 5.5 9t6.5 9l19 25 l20 28q6 5 19 19t20 18q16 9 31 0q12 -5 19 -19t3 -26q2 -6 -8 -16l-45 -37q-67 -44 -82 -29q-3 7 -6 15zM166 367v2h4zM334 131l2 2v4q-7 -3 -2 -6zM344 137q3 -6 6 0h-6zM348 141q2 0 2 2q-4 0 -2 -2zM354 141q2 0 0 2v-2zM365 137q0 3 8 6q0 -6 -8 -6zM375 150l2 -3 q-2 1 -2 3zM389 156q4 4 0 4v-4zM401 162v2v-2zM401 164q0 1 1 4t1 4v4q-2 -2 -2 -6v-6zM403 176q1 0 3 2q-3 0 -3 -2zM406 178h4v2q-4 0 -4 -2zM426 195q2 2 2 4q-2 0 -2 -4zM428 199q6 -6 12 6h-4q-5 3 -8 -6zM440 207q4 0 6 2q0 2 -4 6q1 -4 -1 -6q-1 -1 -1 -2z" />
<glyph unicode="&#xee;" horiz-adv-x="477" d="M-4 121q-2 25 18 86q19 42 47 84q3 4 15.5 21.5t21.5 23.5l11 10q3 6 7.5 10.5t12 9.5l10.5 7q2 2 4 0q3 0 3.5 3.5t3.5 -1.5q0 -2 2 -2t4 2h6l4 -4q-2 -2 0 -4q3 -3 8 -3.5t8 -3.5q0 -1 13 -4h2q-2 0 -2 -2t-2 -2q-18 -7 -27 -16q-9 -6 -12 -14q-9 -9 -17 -13 q-8 -3 -8 -8q0 -4 -0.5 -5t-3 -3t-4.5 -4h-2q0 -2 2 -4q1 -3 0 -3.5t-3 0.5h-1.5t-1.5 -1t-1 -3.5t-1 -3.5q-6 -6 -11 -13.5t-9.5 -17.5t-6.5 -14q-6 -3 -6 -6q4 -6 -1 -7q-2 0 -3 -1v-8q-2 -2 -2 -10q0 -1 -2.5 -3t-3.5 -3.5t2 -2.5q-4 -4 -4 -10q-14 -56 -13 -74v-10 q0 -5 -0.5 -10t-0.5 -7.5t0.5 -5.5t2 -4t5.5 -2t10 -2q36 -3 80 7l88 24q23 13 64.5 38t57.5 34q8 6 28 19.5t32 23.5q28 16 43 31q3 0 6.5 2.5t5.5 3.5q2 2 4.5 5.5t5 5.5t7.5 3q0 3 1.5 4.5t5 3.5t5.5 4q3 3 9 5.5t9 5.5q8 8 17 10v-8h-13l-2 -13v-2h-4l-4 -10l-6 -4v-2 l-2 -2h-2l-4 -6l-6 -6l-21 -19h2q-32 -18 -45 -33l-8 -6q-1 0 -1.5 -1.5t-2 -3.5t-4.5 -3q0 -4 -6 -6l-7 -2q0 -6 -2 -8t-2 -6v-2q-1 0 -7.5 3t-8 3t-4.5 -2q0 -2 -2 -2l-2 -2v2q-6 0 -6 4q-7 0 -7 -4h3q0 -3 2 -5q-2 -2 -2 -4h-3v9q-2 0 -2 -5v-2q0 -2 2 -2q-1 0 -2 -2 t-2 -2q2 -2 7 -2q-3 -4 -7 -7t-9.5 -6t-8.5 -5q-9 -5 -34 -20t-40 -23q-16 -10 -32 -17t-41 -14.5t-35 -11.5q-10 -6 -60 -10q-45 -9 -71 30q-3 3 -6.5 8.5t-6.5 8.5q-18 15 -18 51zM66 477q0 10 10 17l110 110q12 4 13 4q6 0 10 -4l104 -110q6 -9 6 -17q0 -14 -6 -14 q-8 0 -14 6l-100 82l-107 -82q-12 -4 -14 -4q-12 0 -12 12zM121 285v4h4q0 -4 -4 -4zM150 326q0 -2 2 -4q0 4 -2 4zM166 367v2h4zM334 131l2 2v4q-7 -3 -2 -6zM344 137q3 -6 6 0h-6zM348 141q2 0 2 2q-4 0 -2 -2zM354 141q2 0 0 2v-2zM365 137q0 3 8 6q0 -6 -8 -6zM375 150 l2 -3q-2 1 -2 3zM389 156q4 4 0 4v-4zM401 162v2v-2zM401 164q0 1 1 4t1 4v4q-2 -2 -2 -6v-6zM403 176q1 0 3 2q-3 0 -3 -2zM406 178h4v2q-4 0 -4 -2zM426 195q2 2 2 4q-2 0 -2 -4zM428 199q6 -6 12 6h-4q-5 3 -8 -6zM440 207q4 0 6 2q0 2 -4 6q1 -4 -1 -6q-1 -1 -1 -2z" />
<glyph unicode="&#xef;" horiz-adv-x="477" d="M-4 121q-2 25 18 86q19 42 47 84q3 4 15.5 21.5t21.5 23.5l11 10q3 6 7.5 10.5t12 9.5l10.5 7q2 2 4 0q3 0 3.5 3.5t3.5 -1.5q0 -2 2 -2t4 2h6l4 -4q-2 -2 0 -4q3 -3 8 -3.5t8 -3.5q0 -1 13 -4h2q-2 0 -2 -2t-2 -2q-18 -7 -27 -16q-9 -6 -12 -14q-9 -9 -17 -13 q-8 -3 -8 -8q0 -4 -0.5 -5t-3 -3t-4.5 -4h-2q0 -2 2 -4q1 -3 0 -3.5t-3 0.5h-1.5t-1.5 -1t-1 -3.5t-1 -3.5q-6 -6 -11 -13.5t-9.5 -17.5t-6.5 -14q-6 -3 -6 -6q4 -6 -1 -7q-2 0 -3 -1v-8q-2 -2 -2 -10q0 -1 -2.5 -3t-3.5 -3.5t2 -2.5q-4 -4 -4 -10q-14 -56 -13 -74v-10 q0 -5 -0.5 -10t-0.5 -7.5t0.5 -5.5t2 -4t5.5 -2t10 -2q36 -3 80 7l88 24q23 13 64.5 38t57.5 34q8 6 28 19.5t32 23.5q28 16 43 31q3 0 6.5 2.5t5.5 3.5q2 2 4.5 5.5t5 5.5t7.5 3q0 3 1.5 4.5t5 3.5t5.5 4q3 3 9 5.5t9 5.5q8 8 17 10v-8h-13l-2 -13v-2h-4l-4 -10l-6 -4v-2 l-2 -2h-2l-4 -6l-6 -6l-21 -19h2q-32 -18 -45 -33l-8 -6q-1 0 -1.5 -1.5t-2 -3.5t-4.5 -3q0 -4 -6 -6l-7 -2q0 -6 -2 -8t-2 -6v-2q-1 0 -7.5 3t-8 3t-4.5 -2q0 -2 -2 -2l-2 -2v2q-6 0 -6 4q-7 0 -7 -4h3q0 -3 2 -5q-2 -2 -2 -4h-3v9q-2 0 -2 -5v-2q0 -2 2 -2q-1 0 -2 -2 t-2 -2q2 -2 7 -2q-3 -4 -7 -7t-9.5 -6t-8.5 -5q-9 -5 -34 -20t-40 -23q-16 -10 -32 -17t-41 -14.5t-35 -11.5q-10 -6 -60 -10q-45 -9 -71 30q-3 3 -6.5 8.5t-6.5 8.5q-18 15 -18 51zM115 543q0 55 37 55q17 0 31 -13t14 -30q0 -55 -39 -55q-19 0 -31 12t-12 31zM121 285v4h4 q0 -4 -4 -4zM150 326q0 -2 2 -4q0 4 -2 4zM166 367v2h4zM281 510q-36 36 14 70q31 22 45 8q13 -13 15 -31.5t-11 -32.5q-33 -42 -63 -14zM334 131l2 2v4q-7 -3 -2 -6zM344 137q3 -6 6 0h-6zM348 141q2 0 2 2q-4 0 -2 -2zM354 141q2 0 0 2v-2zM365 137q0 3 8 6q0 -6 -8 -6z M375 150l2 -3q-2 1 -2 3zM389 156q4 4 0 4v-4zM401 162v2v-2zM401 164q0 1 1 4t1 4v4q-2 -2 -2 -6v-6zM403 176q1 0 3 2q-3 0 -3 -2zM406 178h4v2q-4 0 -4 -2zM426 195q2 2 2 4q-2 0 -2 -4zM428 199q6 -6 12 6h-4q-5 3 -8 -6zM440 207q4 0 6 2q0 2 -4 6q1 -4 -1 -6 q-1 -1 -1 -2z" />
<glyph unicode="&#xf1;" horiz-adv-x="925" d="M-31 87q1 54 33 120q2 5 4 8q81 125 186.5 247.5t196.5 166.5q9 3 22.5 -6.5t18 -21t-1.5 -17.5q-72 -33 -182 -152t-168 -207q-13 -13 -45 -83q-36 -76 -13 -68q2 0 5 2q77 40 108 63q48 38 107.5 80t142 89.5t117.5 47.5q29 0 46.5 -21t23 -47.5t16 -58t26.5 -47.5 q31 -35 79 -40.5t101 14t96.5 43.5t84.5 53q14 2 14.5 1t-0.5 -11q-260 -193 -395 -82q-24 18 -37 48.5t-16.5 54.5t-12.5 41t-28 15q-35 -6 -128 -71.5t-194.5 -132t-157.5 -76.5q-49 -9 -49 48zM458 477q0 9 3 23q0 8 18 32q63 78 121 17q35 -32 61.5 -30t49.5 38 q26 24 23 -5l-7 -34q-16 -32 -33.5 -45.5t-39.5 -8.5t-41.5 16.5t-51.5 35.5q-17 14 -34 2.5t-42 -40.5q-4 -5 -6 -7q-22 -22 -21 6z" />
<glyph unicode="&#xf2;" horiz-adv-x="411" d="M-19 157q-2 50 45 101q46 51 99 51q24 0 39 -24.5t10 -48.5q35 -35 133 -25.5t152 45.5q19 4 21 2t-9 -16q-43 -18 -76.5 -28.5t-74 -18t-78.5 -3.5t-74 19q-15 -43 -48 -76.5t-73 -32.5q-63 3 -66 55zM23 575q7 -3 10 3t10 6l9 -1q10 -1 16 -5l10 -5l41 -12q5 -3 15 -17 t18 -22q32 -27 27 -59q-5 -22 -23 -17q-16 4 -45.5 41.5t-30.5 38.5q-9 4 -23 15q0 1 1 1q1 1 1 5l-26 6q-11 0 -8 14q2 0 2 2t-4 6zM38 184q-23 -57 13 -61q37 -4 65.5 26.5t37.5 65.5q-22 9 -39 24t-17 31q-38 -33 -60 -86zM130 259.5q10 -12.5 30 -19.5q5 34 -29 43 q-11 -11 -1 -23.5z" />
<glyph unicode="&#xf3;" horiz-adv-x="411" d="M-19 157q-2 50 45 101q46 51 99 51q24 0 39 -24.5t10 -48.5q35 -35 133 -25.5t152 45.5q19 4 21 2t-9 -16q-43 -18 -76.5 -28.5t-74 -18t-78.5 -3.5t-74 19q-15 -43 -48 -76.5t-73 -32.5q-63 3 -66 55zM38 184q-23 -57 13 -61q37 -4 65.5 26.5t37.5 65.5q-22 9 -39 24 t-17 31q-38 -33 -60 -86zM130 259.5q10 -12.5 30 -19.5q5 34 -29 43q-11 -11 -1 -23.5zM133 451q3 3 6 9t6 9l19 25l20 28q6 5 19 19t20 18q15 9 31 0q12 -5 19 -19t3 -26q2 -6 -8 -16l-45 -37q-67 -44 -82 -29q-3 7 -6 15z" />
<glyph unicode="&#xf4;" horiz-adv-x="411" d="M-19 157q-2 50 45 101q46 51 99 51q24 0 39 -24.5t10 -48.5q35 -35 133 -25.5t152 45.5q19 4 21 2t-9 -16q-43 -18 -76.5 -28.5t-74 -18t-78.5 -3.5t-74 19q-15 -43 -48 -76.5t-73 -32.5q-63 3 -66 55zM20 455q0 9 11 16l110 111q12 4 13 4q6 0 10 -4l104 -111 q6 -9 6 -16q0 -15 -6 -15q-8 0 -14 6l-100 82l-107 -82q-12 -4 -14 -4q-13 0 -13 13zM38 184q-23 -57 13 -61q37 -4 65.5 26.5t37.5 65.5q-22 9 -39 24t-17 31q-38 -33 -60 -86zM130 259.5q10 -12.5 30 -19.5q5 34 -29 43q-11 -11 -1 -23.5z" />
<glyph unicode="&#xf5;" horiz-adv-x="411" d="M-19 157q-2 50 45 101q46 51 99 51q24 0 39 -24.5t10 -48.5q35 -35 133 -25.5t152 45.5q19 4 21 2t-9 -16q-43 -18 -76.5 -28.5t-74 -18t-78.5 -3.5t-74 19q-15 -43 -48 -76.5t-73 -32.5q-63 3 -66 55zM-11 442q0 9 3 23q0 9 18 33q62 78 121 16q35 -32 61.5 -30t49.5 38 q26 24 23 -5q-1 -12 -7 -34q-16 -32 -33.5 -45.5t-39.5 -8.5t-41.5 16.5t-51.5 35.5q-17 14 -34 2.5t-42 -40.5q-4 -5 -6 -7q-22 -22 -21 6zM38 184q-23 -57 13 -61q37 -4 65.5 26.5t37.5 65.5q-22 9 -39 24t-17 31q-38 -33 -60 -86zM130 259.5q10 -12.5 30 -19.5 q5 34 -29 43q-11 -11 -1 -23.5z" />
<glyph unicode="&#xf6;" horiz-adv-x="411" d="M-19 157q-2 50 45 101q46 51 99 51q24 0 39 -24.5t10 -48.5q35 -35 133 -25.5t152 45.5q19 4 21 2t-9 -16q-43 -18 -76.5 -28.5t-74 -18t-78.5 -3.5t-74 19q-15 -43 -48 -76.5t-73 -32.5q-63 3 -66 55zM0 485q0 56 37 56q17 0 31 -13t14 -30q0 -56 -39 -56q-19 0 -31 12 t-12 31zM38 184q-23 -57 13 -61q37 -4 65.5 26.5t37.5 65.5q-22 9 -39 24t-17 31q-38 -33 -60 -86zM130 259.5q10 -12.5 30 -19.5q5 34 -29 43q-11 -11 -1 -23.5zM149.5 486q2.5 17 30.5 36q31 22 45 8q13 -13 15 -31t-11 -32q-33 -42 -63 -14q-19 16 -16.5 33z" />
<glyph unicode="&#xf8;" horiz-adv-x="411" d="M-19 157q-2 50 45 101q46 51 99 51q24 0 39 -24.5t10 -48.5q35 -35 133 -25.5t152 45.5q19 4 21 2t-9 -16q-43 -18 -76.5 -28.5t-74 -18t-78.5 -3.5t-74 19q-15 -43 -48 -76.5t-73 -32.5q-63 3 -66 55zM31 141q3 -15 20 -18q37 -4 65.5 26.5t37.5 65.5q-4 3 -12.5 6 t-12.5 6q-52 -40 -98 -86zM33 162q35 40 82 78q-17 14 -17 30q-23 -17 -42 -48t-23 -60zM131 283q-19 -11 4 -29l10 6q2 2 13 2q-6 15 -27 21zM152 242q1 0 4 -1t4 -1v8l-2 -2z" />
<glyph unicode="&#xf9;" horiz-adv-x="864" d="M-13.5 107q4.5 50 24 98.5t42.5 73.5q6 9 13 17t18 17t22 14t25 3.5t27 -11.5q16 -12 6 -28q-5 -10 -14 -6q-20 7 -59 -49t-52 -103l-5 -24q-5 -24 -5 -43.5t10 -22.5q34 -13 119.5 53.5t115.5 104.5q19 8 30.5 -15t16.5 -55t23.5 -61t50.5 -31q62 -5 166.5 36.5t188 89 t149.5 93.5q21 5 24 2t-8 -20q-165 -117 -372 -195q-4 -1 -18 -6t-20 -7t-20 -6l-21 -6t-20 -4.5t-21.5 -2.5t-20.5 -0.5t-20.5 1.5t-18.5 6t-19 9q-26 16 -41.5 43.5t-23 50.5t-13.5 27h-4q-61 -61 -131.5 -106.5t-112.5 -27.5q-9 3 -12 9q-24 32 -19.5 82zM131 551 q7 -3 10.5 2.5t10.5 5.5q2 -1 5.5 -1t6 -0.5t6 -1.5t6.5 -3q8 -4 10 -4l41 -12q5 -3 15.5 -17t17.5 -22q32 -27 27 -59q-5 -22 -23 -17q-16 4 -45.5 41.5t-30.5 38.5q-10 4 -22 14l1 1q1 1 1 5l-27 6q-11 0 -8 15q2 0 2 2t-4 6z" />
<glyph unicode="&#xfa;" horiz-adv-x="864" d="M-13.5 107q4.5 50 24 98.5t42.5 73.5q6 9 13 17t18 17t22 14t25 3.5t27 -11.5q16 -12 6 -28q-5 -10 -14 -6q-20 7 -59 -49t-52 -103l-5 -24q-5 -24 -5 -43.5t10 -22.5q34 -13 119.5 53.5t115.5 104.5q19 8 30.5 -15t16.5 -55t23.5 -61t50.5 -31q62 -5 166.5 36.5t188 89 t149.5 93.5q21 5 24 2t-8 -20q-165 -117 -372 -195q-4 -1 -18 -6t-20 -7t-20 -6l-21 -6t-20 -4.5t-21.5 -2.5t-20.5 -0.5t-20.5 1.5t-18.5 6t-19 9q-26 16 -41.5 43.5t-23 50.5t-13.5 27h-4q-61 -61 -131.5 -106.5t-112.5 -27.5q-9 3 -12 9q-24 32 -19.5 82zM211 444 q3 4 6 10t6 9l19 24l20 29q6 5 19 19t20 18q15 9 31 0q12 -5 19 -19t3 -26q2 -6 -8 -16l-45 -37q-67 -44 -82 -29q-2 5 -5 12z" />
<glyph unicode="&#xfb;" horiz-adv-x="864" d="M-13.5 107q4.5 50 24 98.5t42.5 73.5q6 9 13 17t18 17t22 14t25 3.5t27 -11.5q16 -12 6 -28q-5 -10 -14 -6q-20 7 -59 -49t-52 -103l-5 -24q-5 -24 -5 -43.5t10 -22.5q34 -13 119.5 53.5t115.5 104.5q19 8 30.5 -15t16.5 -55t23.5 -61t50.5 -31q62 -5 166.5 36.5t188 89 t149.5 93.5q21 5 24 2t-8 -20q-165 -117 -372 -195q-4 -1 -18 -6t-20 -7t-20 -6l-21 -6t-20 -4.5t-21.5 -2.5t-20.5 -0.5t-20.5 1.5t-18.5 6t-19 9q-26 16 -41.5 43.5t-23 50.5t-13.5 27h-4q-61 -61 -131.5 -106.5t-112.5 -27.5q-9 3 -12 9q-24 32 -19.5 82zM164 477 q0 10 10 17l111 110l12 4q6 0 10 -4l105 -110q6 -9 6 -17q0 -14 -6 -14q-9 0 -15 6l-100 82l-107 -82q-12 -4 -14 -4q-12 0 -12 12z" />
<glyph unicode="&#xfc;" horiz-adv-x="864" d="M-13.5 107q4.5 50 24 98.5t42.5 73.5q6 9 13 17t18 17t22 14t25 3.5t27 -11.5q16 -12 6 -28q-5 -10 -14 -6q-20 7 -59 -49t-52 -103l-5 -24q-5 -24 -5 -43.5t10 -22.5q34 -13 119.5 53.5t115.5 104.5q19 8 30.5 -15t16.5 -55t23.5 -61t50.5 -31q62 -5 166.5 36.5t188 89 t149.5 93.5q21 5 24 2t-8 -20q-165 -117 -372 -195q-4 -1 -18 -6t-20 -7t-20 -6l-21 -6t-20 -4.5t-21.5 -2.5t-20.5 -0.5t-20.5 1.5t-18.5 6t-19 9q-26 16 -41.5 43.5t-23 50.5t-13.5 27h-4q-61 -61 -131.5 -106.5t-112.5 -27.5q-9 3 -12 9q-24 32 -19.5 82zM178 518 q0 55 37 55q17 0 31 -13t14 -30q0 -55 -39 -55q-19 0 -31 12t-12 31zM344 485q-36 36 14 70q31 22 45 8q13 -13 15.5 -31t-10.5 -32q-34 -43 -64 -15z" />
<glyph unicode="&#xff;" horiz-adv-x="888" d="M-856 -1126q-120 313 321 567q160 88 462.5 216.5t394.5 172.5q40 81 59 135q98 275 92 361q-3 16 -25.5 12.5t-56.5 -23.5q-44 -25 -84.5 -52.5t-90.5 -65t-75 -54.5q-24 -19 -69 -37.5t-68 -3.5q-43 28 -12 97q23 48 86 111t106 48q1 -1 5 -3l8 -4t4 -3q6 -18 -13 -43 q-25 4 -63.5 -31t-63.5 -67q-42 -56 -34 -70q5 -9 15 -10t26 6.5t27 14t30 19.5t22 15q25 17 71.5 52.5t86 62t82.5 47.5q28 12 57 18.5t58.5 0t36.5 -32.5q7 -23 6.5 -53.5t-4 -59t-15.5 -69.5t-20.5 -68.5t-26 -72.5t-25.5 -64.5t-26 -61.5l123 68q106 61 223.5 146 t149.5 145q20 12 22.5 10.5t-2.5 -19.5q-22 -46 -99 -110.5t-147 -109.5t-131 -79q-20 -13 -151 -82l-4 -12q-115 -313 -312 -589.5t-446 -450.5q-67 -46 -141.5 -70t-146.5 -23t-132.5 44t-89.5 125zM-850 -944q-10 -62 1.5 -121t41.5 -103t80.5 -66.5t112.5 -12.5 q77 12 178.5 75.5t196.5 152t180 187.5t139 187q130 217 201 385q3 9 12.5 28t13.5 29q-85 -40 -180.5 -81.5t-215 -91.5t-183.5 -77q-66 -27 -132.5 -61t-144 -83t-138.5 -101t-106.5 -117t-56.5 -129zM319 543q0 55 37 55q17 0 31 -13t14 -30q0 -55 -39 -55q-19 0 -31 12 t-12 31zM469.5 543.5q2.5 17.5 30.5 36.5q31 22 45 8q13 -13 15 -31.5t-11 -32.5q-33 -42 -64 -14q-18 16 -15.5 33.5z" />
<glyph unicode="&#x152;" horiz-adv-x="2148" d="M-131 -355q-3 72 2.5 132.5t17.5 107.5q62 237 244 504q11 83 37 137q37 87 139 221.5t242.5 274.5t295 239.5t296 116t246.5 -95.5q57 -64 73.5 -187.5t3.5 -234t-41 -194.5q-56 -160 -69 -189l12 19q164 276 391 555q10 20 25.5 18.5t21.5 -29.5q-232 -345 -260 -385 q-22 -33 -81.5 -120t-90.5 -134q454 117 645 154q27 -4 21 -25q-7 -23 -38 -33l-22 -3q-12 -2 -80 -14l-85 -15t-76 -14t-83.5 -17t-75 -18t-83.5 -21.5t-76.5 -23.5t-83.5 -29q-80 -128 -276 -455q-105 -176 -137 -301q-15 -63 14 -82q16 -11 41 -13.5t59 4t56.5 12 t59 17.5t40.5 13q53 18 155.5 53.5t165.5 57t154 50t170 50.5q34 11 79.5 20t101.5 12.5t96 -15.5t43 -62q-4 9 -24 18t-34 11q-79 14 -192 -7.5t-344 -105.5q-19 -7 -68 -27q-282 -113 -418 -136q-240 -39 -209 134q17 85 46 170.5t55 128.5q-154 -165 -400 -331 q-38 -26 -91 -53t-121 -52.5t-134.5 -41t-132.5 -13.5t-112 27q-52 27 -80 87.5t-31 132.5zM-72 -271q-11 -77 3.5 -163t66.5 -117q65 -37 163 -21t200 63t185 102t118 96q130 126 222 224.5t191.5 224.5t171.5 260t117 278q30 95 46 205t7 220.5t-53 162.5q-46 54 -117 68 t-137.5 -3t-132.5 -53q-181 -95 -383 -277t-309 -350q-49 -78 -86 -162q135 188 327 392l62 61l59 55q6 5 17 14.5t20 17.5t16 15q128 90 174 79q27 -7 27 -46q0 -11 -6.5 -16t-14 -1t-10.5 15q-101 -23 -255.5 -171t-247.5 -281q-136 -196 -207 -316q0 -125 18 -131h3 l-7 -2l14 -25q-19 -9 -33 6.5t-19 36t-5 35.5q-2 6 -2 29q-112 -191 -172 -383q-20 -65 -31 -142zM1684 1121q-3 11 10 22q33 25 213 51q37 5 122 18.5t151 22t128 12.5q28 2 53.5 2.5t68 0t76 -8.5t65.5 -21t48.5 -38t14.5 -60q-31 -44 -31 2q-11 24 -12 27q-30 42 -76 45 q-273 8 -588 -47q-175 -24 -223 -35q-17 -4 -20 7z" />
<glyph unicode="&#x153;" horiz-adv-x="747" d="M-4 162.5q6 43.5 39.5 87.5t62.5 41q26 -3 37 -23q10 23 25 41q28 35 73.5 66t77.5 20q3 -3 5.5 -8t5.5 -8q11 -36 -14 -75.5t-62 -65.5q-7 -6 -33.5 -18t-34.5 -21q-2 -2 -8 -2q-3 -24 10 -47q30 -54 160 -35q121 22 252.5 68t216.5 104q37 14 34 4q-1 -7 -18 -19 q-25 -16 -58 -32.5t-56 -26t-64.5 -26t-58.5 -23.5q-84 -35 -162 -55q-12 -2 -37 -7.5t-40.5 -9t-37.5 -6t-41 -2.5q-54 1 -91.5 26t-49.5 64q-44 -90 -106 -72q-33 17 -27 60.5zM38.5 162q-9.5 -32 0.5 -35q23 -13 47 8t32 52.5t-1 58.5q-2 3 -2 10t-2 8t-13 0 q-14 -5 -33 -37.5t-28.5 -64.5zM180 240q6 3 18.5 8.5t22.5 11t17 12.5q4 4 12.5 12t12.5 12.5t10 11.5t9.5 14t6.5 16q4 12 4 18q-2 2 -8 2q-14 -5 -45 -36q-42 -42 -60 -82z" />
<glyph unicode="&#x178;" horiz-adv-x="1492" d="M-205 788q0 97 92.5 206.5t220 191t261.5 134.5t217 50q242 -13 64 -356q-119 -228 -378 -534q-24 -29 -43 -50q-400 -512 -288 -551q31 -12 82 13.5t92 60t103.5 91t88.5 77.5q114 94 224.5 191t285 255.5t219.5 198.5q13 12 79 75t122 114.5t121.5 97t99.5 45.5 q12 0 32.5 -20t20.5 -36q0 -51 -43.5 -172t-76.5 -190q-65 -136 -166 -320q35 15 196 76q36 24 47 8q8 -15 -14 -34q-170 -62 -258 -99q-78 -133 -159.5 -254.5t-182.5 -247.5t-202 -225.5t-218 -180.5t-231 -122q-16 -8 -51 -8q-57 0 -84 25.5t-27 60.5t15 78t38 74 q359 495 1026 802q108 186 211 400q129 269 129 329q0 6 -3.5 14.5t-8.5 8.5q-35 4 -114.5 -61.5t-173 -159.5t-101.5 -101q-27 -24 -302.5 -273.5t-426.5 -371.5q-1 -1 -25.5 -22t-37.5 -31.5t-42.5 -34.5t-49.5 -38.5t-49 -36t-51.5 -35t-47 -26.5t-45 -19.5t-35.5 -6.5 q-58 0 -79.5 31.5t-7.5 85.5t40.5 109t66.5 119q85 133 272 366.5t271 362.5q152 217 158 323q4 96 -118 89q-132 -8 -334 -119q-200 -110 -311 -236q-92 -104 -79 -180q0 -16 15 -24.5t36 -8.5q2 0 3.5 -1t2.5 -2.5t1.5 -3.5t0.5 -5.5v-6v-7v-7.5q0 -16 -24 -16 q-32 0 -49 22t-17 49zM70 -643q0 -28 17 -41.5t44 -13.5q49 0 127 38.5t109 63.5l79 64l93 86q303 292 553 712q-226 -102 -418.5 -234.5t-380.5 -326.5q-44 -46 -74 -80t-69 -84.5t-59.5 -97.5t-20.5 -86zM940 1231q0 55 37 55q17 0 31 -13t14 -30q0 -55 -39 -55 q-19 0 -31 12t-12 31zM1106 1198q-36 36 14 70q31 22 45 8q13 -13 15 -31.5t-11 -32.5q-33 -42 -63 -14z" />
<glyph unicode="&#x2c6;" horiz-adv-x="479" d="M70 496q0 9 10 16l110 111q12 4 13 4q6 0 10 -4l104 -111q7 -11 7 -16q0 -15 -7 -15q-8 0 -14 6l-100 82l-107 -82q-12 -4 -14 -4q-12 0 -12 13z" />
<glyph unicode="&#x2dc;" horiz-adv-x="468" d="M77 530l3 23q0 9 18 33q62 78 121 16q35 -32 61.5 -30t49.5 38q26 24 23 -5l-7 -34q-16 -32 -33.5 -45.5t-39.5 -8.5t-41.5 16.5t-51.5 35.5q-17 14 -34 2.5t-42 -40.5q-4 -5 -6 -7q-22 -22 -21 6z" />
<glyph unicode="&#x2000;" horiz-adv-x="944" />
<glyph unicode="&#x2001;" horiz-adv-x="1888" />
<glyph unicode="&#x2002;" horiz-adv-x="944" />
<glyph unicode="&#x2003;" horiz-adv-x="1888" />
<glyph unicode="&#x2004;" horiz-adv-x="629" />
<glyph unicode="&#x2005;" horiz-adv-x="472" />
<glyph unicode="&#x2006;" horiz-adv-x="314" />
<glyph unicode="&#x2007;" horiz-adv-x="314" />
<glyph unicode="&#x2008;" horiz-adv-x="236" />
<glyph unicode="&#x2009;" horiz-adv-x="377" />
<glyph unicode="&#x200a;" horiz-adv-x="104" />
<glyph unicode="&#x2010;" horiz-adv-x="741" d="M213 285q0 15 9.5 26t15.5 11l30 2q30 3 72 6t86 5.5t79 1.5t44 -5q33 -16 51.5 -31.5t1.5 -24.5q-13 -7 -140.5 -6.5t-142.5 -3.5q-22 -10 -64 -3.5t-42 22.5z" />
<glyph unicode="&#x2011;" horiz-adv-x="741" d="M213 285q0 15 9.5 26t15.5 11l30 2q30 3 72 6t86 5.5t79 1.5t44 -5q33 -16 51.5 -31.5t1.5 -24.5q-13 -7 -140.5 -6.5t-142.5 -3.5q-22 -10 -64 -3.5t-42 22.5z" />
<glyph unicode="&#x2012;" horiz-adv-x="741" d="M213 285q0 15 9.5 26t15.5 11l30 2q30 3 72 6t86 5.5t79 1.5t44 -5q33 -16 51.5 -31.5t1.5 -24.5q-13 -7 -140.5 -6.5t-142.5 -3.5q-22 -10 -64 -3.5t-42 22.5z" />
<glyph unicode="&#x2013;" horiz-adv-x="1367" d="M213 285q0 15 24.5 26t39.5 11l78 2q77 3 185.5 6t222 5.5t203.5 1.5t113 -5q85 -16 133 -31.5t4 -24.5q-34 -7 -362.5 -6.5t-367.5 -3.5q-56 -10 -164.5 -3.5t-108.5 22.5z" />
<glyph unicode="&#x2014;" horiz-adv-x="2390" d="M213 285q0 15 49 26t80 11l155 2q154 3 371 6t443.5 5.5t407 1.5t227.5 -5q170 -16 265.5 -31.5t7.5 -24.5q-67 -7 -724.5 -6.5t-734.5 -3.5q-114 -10 -330.5 -3.5t-216.5 22.5z" />
<glyph unicode="&#x2018;" horiz-adv-x="223" d="M80 504q-3 8 8.5 32t22 46t8.5 24q-1 3 4 21q2 2 8 6l-16 14q-3 3 12 17q2 0 4 2l6 8q1 -5 10 -1t13 3q2 -2 5.5 -4t4.5 -3.5t0 -6.5q0 -5 4 -5q9 -3 12 -22q3 -4 0 -11.5t-9.5 -19t-8.5 -18.5q-8 -34 -51 -69q-33 -27 -37 -13z" />
<glyph unicode="&#x2019;" horiz-adv-x="223" d="M80 504q-3 8 8.5 32t22 46t8.5 24q-1 3 4 21q2 2 8 6l-16 14q-3 3 12 17q2 0 4 2l6 8q1 -5 10 -1t13 3q2 -2 5.5 -4t4.5 -3.5t0 -6.5q0 -5 4 -5q9 -3 12 -22q3 -4 0 -11.5t-9.5 -19t-8.5 -18.5q-8 -34 -51 -69q-33 -27 -37 -13z" />
<glyph unicode="&#x201c;" horiz-adv-x="815" d="M414 1055v2q4 -4 2 -6v-2q8 0 17 13t20 33.5t20 30.5l8 15q0 8 -2 12q-32 -38 -51 -74q0 -13 -6 -16q0 7 2.5 13t8 14.5t7.5 13.5q34 70 103 162q4 4 10.5 7t15.5 6t13 5q19 -12 16 -20q0 -6 -12 -21l-2 -2l2 2h8q-2 -2 -10 -2l-6 -10q2 -2 0 -4v2q-19 -13 -19 -27 l-12 -6h2v-2h2v-2h-4l2 2q-2 0 -2 2q-2 0 -2 -2l2 -2h-2q-20 -39 -68 -90q0 -2 2 -4h-2q-29 -38 -39 -60q17 17 29 15q-13 -31 -41 -33q-4 3 -3.5 13t-6.5 16q-2 2 -2 6zM414 1057v2v4l6 -2q-1 0 -3 -1t-3 -1h2zM436 1036l2 2q-2 2 -2 0v-2zM457 1057q0 1 1 3t1 3v-2 q0 -2 -2 -4zM471 1073l2 2q0 -2 -2 -2zM489 1159q6 7 35 60q-8 -8 -14 -18.5t-12 -23.5t-9 -18zM526 1221l15 12zM545 1042q3 11 16.5 31.5t16.5 32.5l16 10l-1 2q-1 2 -1 6h2l4 4q16 27 16 31q0 1 -2 4t-2 4q4 4 8 4h3q2 14 11.5 33.5t20.5 24.5v4l19 27q4 0 0 -7 q-2 0 -2 -2v-8q2 3 7.5 12.5t10 13.5t10.5 5q15 -6 15 -17q-2 -6 -11 -18l-6 -14q3 0 4.5 1.5t4 5t4.5 5.5l4 4h-4q0 2 2 2t4 -2q1 -5 -0.5 -13t-1.5 -9q0 -6 -3 -13.5t-9.5 -17t-8.5 -14.5q-15 -18 -30 -40.5t-33.5 -52.5t-28.5 -45l-16 -32q0 -11 2 -13q-6 3 -12.5 13 t-10.5 14q-3 0 -4 -1t-2.5 -4t-3.5 -5q1 7 -3.5 17.5t-4.5 16.5zM545 1241q0 1 0.5 1.5t1 2t0.5 4.5q-2 -2 -2 -8zM553 1008l6 -7h-2zM553 1255l2 -2l2 2h-4zM575 1206v2q0 4 11 11zM586 1120l2 4l2 4l1 3q1 3 1 6l6 -9q-1 0 -3 -1t-3 -1q-2 -2 -4 -2h4l-4 -8q-2 2 -2 4z M592 1231l2 2v-2h-2zM596 1059l2 2h-2v-2zM600 1079q-4 -4 2 -4q1 0 3 2t3 2h-8zM606 1153l2 2l2 -2q0 -2 -2 -4q-2 0 -2 4zM618 1106q3 0 7 4h-4zM639 1143l4 -8l8 6q0 1 -1 1q-4 1 -5 5q-6 3 -6 -4zM639 1200h2q3 3 7 12t7 13q0 2 -2 2q-3 -13 -14 -27zM653 1157l4 4z M659 1171l3 3v2q-3 -3 -3 -5zM672 1186q6 6 6 14q-6 -6 -6 -8v-6zM680 1202q1 1 3 1.5t3.5 1t1.5 1.5q6 3 6 4q0 2 -6 2v-4zM707 1235v2h2zM707 1237v4h2q0 -2 -2 -4z" />
<glyph unicode="&#x201d;" horiz-adv-x="815" d="M414 1055v2q4 -4 2 -6v-2q8 0 17 13t20 33.5t20 30.5l8 15q0 8 -2 12q-32 -38 -51 -74q0 -13 -6 -16q0 7 2.5 13t8 14.5t7.5 13.5q34 70 103 162q4 4 10.5 7t15.5 6t13 5q19 -12 16 -20q0 -6 -12 -21l-2 -2l2 2h8q-2 -2 -10 -2l-6 -10q2 -2 0 -4v2q-19 -13 -19 -27 l-12 -6h2v-2h2v-2h-4l2 2q-2 0 -2 2q-2 0 -2 -2l2 -2h-2q-20 -39 -68 -90q0 -2 2 -4h-2q-29 -38 -39 -60q17 17 29 15q-13 -31 -41 -33q-4 3 -3.5 13t-6.5 16q-2 2 -2 6zM414 1057v2v4l6 -2q-1 0 -3 -1t-3 -1h2zM436 1036l2 2q-2 2 -2 0v-2zM457 1057q0 1 1 3t1 3v-2 q0 -2 -2 -4zM471 1073l2 2q0 -2 -2 -2zM489 1159q6 7 35 60q-8 -8 -14 -18.5t-12 -23.5t-9 -18zM526 1221l15 12zM545 1042q3 11 16.5 31.5t16.5 32.5l16 10l-1 2q-1 2 -1 6h2l4 4q16 27 16 31q0 1 -2 4t-2 4q4 4 8 4h3q2 14 11.5 33.5t20.5 24.5v4l19 27q4 0 0 -7 q-2 0 -2 -2v-8q2 3 7.5 12.5t10 13.5t10.5 5q15 -6 15 -17q-2 -6 -11 -18l-6 -14q3 0 4.5 1.5t4 5t4.5 5.5l4 4h-4q0 2 2 2t4 -2q1 -5 -0.5 -13t-1.5 -9q0 -6 -3 -13.5t-9.5 -17t-8.5 -14.5q-15 -18 -30 -40.5t-33.5 -52.5t-28.5 -45l-16 -32q0 -11 2 -13q-6 3 -12.5 13 t-10.5 14q-3 0 -4 -1t-2.5 -4t-3.5 -5q1 7 -3.5 17.5t-4.5 16.5zM545 1241q0 1 0.5 1.5t1 2t0.5 4.5q-2 -2 -2 -8zM553 1008l6 -7h-2zM553 1255l2 -2l2 2h-4zM575 1206v2q0 4 11 11zM586 1120l2 4l2 4l1 3q1 3 1 6l6 -9q-1 0 -3 -1t-3 -1q-2 -2 -4 -2h4l-4 -8q-2 2 -2 4z M592 1231l2 2v-2h-2zM596 1059l2 2h-2v-2zM600 1079q-4 -4 2 -4q1 0 3 2t3 2h-8zM606 1153l2 2l2 -2q0 -2 -2 -4q-2 0 -2 4zM618 1106q3 0 7 4h-4zM639 1143l4 -8l8 6q0 1 -1 1q-4 1 -5 5q-6 3 -6 -4zM639 1200h2q3 3 7 12t7 13q0 2 -2 2q-3 -13 -14 -27zM653 1157l4 4z M659 1171l3 3v2q-3 -3 -3 -5zM672 1186q6 6 6 14q-6 -6 -6 -8v-6zM680 1202q1 1 3 1.5t3.5 1t1.5 1.5q6 3 6 4q0 2 -6 2v-4zM707 1235v2h2zM707 1237v4h2q0 -2 -2 -4z" />
<glyph unicode="&#x202f;" horiz-adv-x="377" />
<glyph unicode="&#x205f;" horiz-adv-x="472" />
<glyph unicode="&#x20ac;" horiz-adv-x="749" d="M29 193q0 48 39 182q10 35 27 73.5t29 60t13 21.5v11l-12 8v-2q-6 6 -13.5 21t-7.5 24q1 1 3 1.5t5 1t5 1.5l28 6l43 10q34 46 72 93q79 101 168 178q59 51 119.5 81.5t99.5 30.5q60 0 94 -63q17 -46 17 -72q0 -38 -14.5 -74.5t-30.5 -54t-21 -10.5q-19 23 2 53 q11 15 17 67.5t2 61.5q-2 6 -8.5 11.5t-20 10t-31 4t-44.5 -11t-58 -30.5q-32 -20 -67 -52.5t-63 -65t-50.5 -61t-36.5 -48.5t-15 -21q-3 -10 82 -2q24 -5 60 4l84 12q6 3 10 -8l6 -8l2 -2q4 -4 -15 -13q-13 -6 -22 -8q-23 0 -41 -6q-11 -2 -30.5 -5t-32.5 -5.5t-19 -5.5h-8 q-3 0 -7 -1t-5 -1q-11 -2 -37.5 -5.5t-45 -6.5t-24.5 -7q-14 -5 -35.5 -46t-37 -80t-13.5 -37t13 2q16 0 30 2l101 6h61q144 0 160 6q19 8 30 -2q4 -4 1 -8q-6 -6 -78 -17l-74 -8l-78 -8q-57 -8 -114 -8q-29 -2 -62.5 -13t-40.5 -28l-6 -18t-7.5 -25t-8 -28t-8.5 -31 t-6.5 -30t-4.5 -30t-1 -26t3 -22.5t9 -15.5q26 -29 73.5 -32t106 15.5t109 40t107 49t75.5 34.5q9 1 56 33q31 20 32 8q12 -28 -27 -57q-21 -15 -112.5 -58t-180.5 -76q-112 -32 -160 -32q-2 0 -16 -0.5t-21.5 -0.5t-22.5 3.5t-26.5 10t-27 20t-29.5 32.5q-16 21 -16 97z M399 641l4 -4h-2q-6 0 -2 4z" />
<glyph unicode="&#x2122;" horiz-adv-x="1030" d="M92 700.5q-4 3.5 4 14.5q6 10 150 49t221 51q149 23 227 23q8 -1 12 -4t4.5 -5.5t0.5 -9.5q0 -4 -13.5 -6.5t-27 -3.5t-13.5 -2q-147 -25 -178 -25q-39 -3 -104 -28q3 -23 -21 -82.5t-49 -108t-26 -47.5q-1 0 -16.5 -28t-32.5 -55.5t-21 -26.5q-14 3 4 45l33 88l28 75 l72 140l-108 -27q-114 -29 -125 -29q-17 -1 -21 2.5zM404.5 495q0.5 14 11.5 37q4 7 26.5 49.5t36.5 67.5l47 78q0 4 2 6q7 7 19 4q16 -6 14.5 -18.5t-14.5 -24.5q-17 -17 -25 -41q-9 -22 -10 -28q12 15 39 30q47 29 84 31q36 0 49 -31.5t6 -50.5q-2 -6 25.5 15.5t56 46 t29.5 24.5l7 5q6 5 13.5 10t17.5 7t17 -5q35 -28 -25 -156q-43 -92 -30 -100q4 -3 18 -4q11 0 11 -3q0 -1 -1 -2t-3.5 -5.5t-4.5 -6.5t-6 -5.5t-8 -3.5t-12 1q-46 12 -17 90l31 102l16 56l-28 -21q-7 -7 -21.5 -18t-17.5 -15q-19 -19 -48.5 -43t-41.5 -24q-26 0 -23 35 q0 6 4.5 28t4 34t-8.5 13q-14 2 -46.5 -13.5t-57.5 -37.5t-51 -54t-37 -52q-18 -38 -35 -31q-9 5 -11.5 7.5t-2 16.5z" />
<glyph unicode="&#x25fc;" horiz-adv-x="389" d="M0 0v389h389v-389h-389z" />
<glyph unicode="&#xfb01;" horiz-adv-x="1032" d="M-282.5 -648.5q-1.5 63.5 12.5 136.5t33.5 146.5t48 152.5t51.5 135.5t47 112.5l57 123q-6 42 -4 51q11 25 45 29q156 293 434 673q22 35 57.5 74.5t61.5 46.5q8 3 19 -8q20 -5 22 -20.5t-11 -38.5t-29 -46t-32 -49t-20 -41q-7 -13 -29 14q-11 14 -16 27 q-89 -119 -178 -256q-118 -181 -217 -378q32 -6 80.5 -22t52.5 -17q177 -48 387 61q4 1 8.5 2t6.5 1.5t3 0.5q42 74 86 109q21 14 48 4q18 -9 10 -23q-44 -38 -94 -119q-80 -130 -34 -166q22 -17 74 -8q100 18 209 84q86 54 183 129q3 1 6 4q5 3 5.5 2t-0.5 -6l-5 -20 q-94 -75 -178 -127q-125 -82 -220 -92q-45 -5 -75 5t-43 29t-15 47t6 57.5t23 61.5q-189 -88 -354 -67q-15 2 -81 21t-102 22l-45 -96q28 -77 35 -113q43 -171 37 -344q-5 -104 -38 -211t-91 -176q-23 -23 -39.5 -38t-45 -33t-49.5 -20t-44 13.5t-39 54.5 q-19 42 -20.5 105.5zM-231.5 -692q0.5 -59 18.5 -88q10 -16 27 -17t35.5 9.5t32.5 21.5t26 23q106 106 141 335q31 175 -31 402l-24 72q-93 -215 -158 -414q-14 -43 -27.5 -95.5t-27 -121t-13 -127.5zM775.5 521.5q0.5 17.5 6.5 31.5q8 11 24.5 6t29.5 -18q9 -11 8 -24.5 t-8 -18.5t-26 -7t-28 5q-7 8 -6.5 25.5z" />
<glyph unicode="&#xfb02;" horiz-adv-x="1120" d="M-282.5 -648.5q-1.5 63.5 12.5 136.5t33.5 146.5t48 152.5t51.5 135.5t47 112.5l57 123q-6 42 -4 51q11 25 45 29q156 293 434 673q22 35 57.5 74.5t61.5 46.5q8 3 19 -8q20 -5 22 -20.5t-11 -38.5t-29 -46t-32 -49t-20 -41q-7 -13 -29 14q-11 14 -16 27 q-89 -119 -178 -256q-118 -181 -217 -378q32 -6 80.5 -22t52.5 -17q167 -45 362 49q4 31 8 39q82 331 377 673q158 185 297 261q44 24 69 17.5t34.5 -32t6 -61t-17.5 -70.5q-8 -17 -21.5 -47t-23 -48.5t-24.5 -43.5q-189 -316 -649 -711h-3v-16q-6 -63 10.5 -102t49.5 -51 t74 -10.5t87 18t85.5 36t72.5 41.5q10 7 33.5 23t37 25t33 23t35.5 27.5t31 26.5q25 5 25.5 3t-10.5 -21q-164 -144 -353 -215q-129 -48 -202.5 8.5t-65.5 179.5q-169 -73 -321 -53q-15 2 -81 21t-102 22l-45 -96q28 -77 35 -113q43 -171 37 -344q-5 -104 -38 -211t-91 -176 q-23 -23 -39.5 -38t-45 -33t-49.5 -20t-44 13.5t-39 54.5q-19 42 -20.5 105.5zM-231.5 -692q0.5 -59 18.5 -88q10 -16 27 -17t35.5 9.5t32.5 21.5t26 23q106 106 141 335q31 175 -31 402l-24 72q-93 -215 -158 -414q-14 -43 -27.5 -95.5t-27 -121t-13 -127.5zM625 254 q359 315 567 606q74 104 123 227q35 86 7.5 104.5t-95.5 -38.5q-91 -74 -232 -238q-257 -298 -354 -598q-5 -14 -10 -36t-6 -27z" />
</font>
</defs>
</svg>
